找回密码

蓝光电影网

查看: 8|回复: 0

[剧情] 格里芬与菲尼克斯 Griffin.and.Phoenix.2006.PROPER.1080p.WEBRip.x264-RARBG 1.97GB

[复制链接]
蓝光币
426
发表于 2021-8-20 00:47:39 | 显示全部楼层 |阅读模式


◎译  名 格里芬与菲尼克斯
◎片  名 Griffin and Phoenix
◎年  代 2006
◎产  地 美国
◎类  别 剧情 / 笑剧 / 恋爱
◎语  言 英语
◎上映日期 2006-09-12
◎IMDb评分  7.0/10 from 7306 users
◎IMDb链接  https://www.imdb.com/title/tt0460812
◎豆瓣评分 7.4/10 from 1152 users
◎豆瓣链接 https://movie.douban.com/subject/1765914/
◎片  长 102 分钟
◎导  演 Ed Stone
◎编  剧 约翰·希尔 John Hill
◎主  演 阿曼达·皮特 Amanda Peet
       德蒙特·莫罗尼 Dermot Mulroney
       布莱尔·布朗 Blair Brown
       莎拉·保罗森 Sarah Paulson

◎标  签 恋爱 | 美国 | 美国电影 | 温情 | 灭亡 | 剧情 | 2006 | 电影
◎简  介

  
  格里芬(德蒙特?莫罗尼 饰)被确诊得了了癌症,估量只要不到两年的寿命。而他早与妻子仳离了,儿子归妻子抚养,是以没有人晓得他的不幸。
  格里芬在心理学课上碰到了菲尼克斯(阿曼达?皮特 饰)。两人相处甚欢,而菲尼克斯发现自己爱上了格里芬。究竟上,菲尼斯克也是一位癌症患者,当两人把自己的情况都告诉了相互以后,他们的之间加倍亲近了。他们来到了海边度假,决议要与对方共度剩下的美好时光,他们也约定不要出现在对方的葬礼上。
  幸运日子过得太快了,菲尼克斯的病情加重。到了医院的她不要见格里芬,可是格里芬真挚的恋爱还是感动了她。担忧自己活不外冬季的菲尼克斯哀痛不已,由于她最喜好的节日即是圣诞节。当格里芬抱着她到中心公园时,展开眼看到的气象让菲尼克斯欣喜不已……
  1. Video
  2. ID                                       : 1
  3. Format                                   : AVC
  4. Format/Info                              : Advanced Video Codec
  5. Format profile                           : [email protected]
  6. Format settings                          : CABAC / 4 Ref Frames
  7. Format settings, CABAC                   : Yes
  8. Format settings, Reference frames        : 4 frames
  9. Codec ID                                 : avc1
  10. Codec ID/Info                            : Advanced Video Coding
  11. Duration                                 : 1 h 43 min
  12. Bit rate                                 : 2 500 kb/s
  13. Width                                    : 1 920 pixels
  14. Height                                   : 1 040 pixels
  15. Display aspect ratio                     : 1.85:1
  16. Frame rate mode                          : Constant
  17. Frame rate                               : 23.976 (23976/1000/189150) FPS
  18. Color space                              : YUV
  19. Chroma subsampling                       : 4:2:0
  20. Bit depth                                : 8 bits
  21. Scan type                                : Progressive
  22. Bits/(Pixel*Frame)                       : 0.052
  23. Stream size                              : 1.80 GiB (92%)
  24. Writing library                          : x264 core 152 r2851M ba24899
  25. Encoding settings                        : cabac=1 / ref=4 / deblock=1:-1:-1 / analyse=0x3:0x113 / me=umh / subme=9 / psy=1 / psy_rd=1.00:0.15 / mixed_ref=1 / me_range=24 / chroma_me=1 / trellis=2 / 8x8dct=1 / cqm=0 / deadzone=21,11 / fast_pskip=1 / chroma_qp_offset=-3 / threads=16 / lookahead_threads=4 / sliced_threads=0 / nr=0 / decimate=1 / interlaced=0 / bluray_compat=0 / constrained_intra=0 / bframes=3 / b_pyramid=2 / b_adapt=2 / b_bias=0 / direct=3 / weightb=1 / open_gop=0 / weightp=2 / keyint=250 / keyint_min=25 / scenecut=40 / intra_refresh=0 / rc_lookahead=50 / rc=2pass / mbtree=1 / bitrate=2500 / ratetol=1.0 / qcomp=0.60 / qpmin=0 / qpmax=69 / qpstep=4 / cplxblur=20.0 / qblur=0.5 / vbv_maxrate=31250 / vbv_bufsize=31250 / nal_hrd=none / filler=0 / ip_ratio=1.40 / aq=3:1.00
  26. Encoded date                             : UTC 2020-08-15 14:19:15
  27. Tagged date                              : UTC 2020-08-15 14:19:15
  28. Codec configuration box                  : avcC
  29. Audio
  30. ID                                       : 2
  31. Format                                   : AAC LC
  32. Format/Info                              : Advanced Audio Codec Low Complexity
  33. Codec ID                                 : mp4a-40-2
  34. Duration                                 : 1 h 43 min
  35. Duration_LastFrame                       : -11 ms
  36. Bit rate mode                            : Constant
  37. Bit rate                                 : 224 kb/s
  38. Channel(s)                               : 6 channels
  39. Channel layout                           : C L R Ls Rs LFE
  40. Sampling rate                            : 48.0 kHz
  41. Frame rate                               : 46.875 FPS (1024 SPF)
  42. Compression mode                         : Lossy
  43. Stream size                              : 166 MiB (8%)
  44. Language                                 : English
  45. Default                                  : Yes
  46. Alternate group                          : 1
  47. Encoded date                             : UTC 2020-08-15 14:19:15
  48. Tagged date                              : UTC 2020-08-15 14:19:15
复制代码





                                       
                                       

                                       
                                       
                                       




回复

使用道具 举报

懒得打字嘛,点击右侧快捷回复 【右侧内容,后台自定义】
您需要登录后才可以回帖 登录 | 立即加入

本版积分规则

Archiver|小黑屋| 蓝光电影网 |网站地图

Copyright © 2021 Comsenz Inc. Powered by 蓝光电影网

蓝光电影网

本站内容由用户自主分享和转载自互联网,转载目的在于传递更多信息,并不代表本网赞同其观点和对其真实性负责。

如有侵权、违反国家法律政策行为,请联系我们,我们会第一时间及时清除和处理!

举报反馈邮箱:[email protected]

快速回复 返回顶部 返回列表