找回密码

蓝光电影网

查看: 6|回复: 0

[剧情] 鳏夫的旅程 The.Journey.of.August.King.1995.1080p.AMZN.WEBRip.DDP2.0.x264-QOQ 8.52GB

[复制链接]
蓝光币
382
发表于 2021-8-20 00:47:54 | 显示全部楼层 |阅读模式


◎译  名 鳏夫的旅程
◎片  名 The Journey of August King
◎年  代 1995
◎产  地 美国
◎类  别 剧情
◎语  言 英语
◎上映日期 1995
◎IMDb评分  6.5/10 from 890 users
◎IMDb链接  https://www.imdb.com/title/tt0113490
◎豆瓣评分 0/10 from 0 users
◎豆瓣链接 https://movie.douban.com/subject/5110691/
◎片  长 91 分钟
◎导  演 约翰·杜根 John Duigan
◎编  剧 John Ehle
◎主  演 杰森·帕特里克 Jason Patric
       坦迪·牛顿 Thandie Newton
       拉里·德雷克 Larry Drake
       萨姆·沃特森 Sam Waterston
       埃里克·马比斯 Eric Mabius
       缪斯·沃森 Muse Watson
       约翰·道曼 John Doman
       科林·威克斯·帕斯顿 Collin Wilcox Paxton

◎标  签 被轻忽的电影 | M美国 | P-VeniceD非比赛展映 | D约翰·杜根
◎简  介

  
  1815年8月,在北卡罗莱纳州,一个农民鳏夫在回家的路上,他每年销售他的产物,采办股票和商品后,他将需要过冬。在他的旅程中,他碰到一个离家出走的仆从——一位年轻女子,她正在被追杀。他决议违反法令,帮助这个仆从获得自在……
  1. Video
  2. ID                                       : 1
  3. Format                                   : AVC
  4. Format/Info                              : Advanced Video Codec
  5. Format profile                           : [email protected]
  6. Format settings                          : CABAC / 4 Ref Frames
  7. Format settings, CABAC                   : Yes
  8. Format settings, Reference frames        : 4 frames
  9. Codec ID                                 : V_MPEG4/ISO/AVC
  10. Duration                                 : 1 h 32 min
  11. Bit rate mode                            : Variable
  12. Bit rate                                 : 12.9 Mb/s
  13. Maximum bit rate                         : 15.0 Mb/s
  14. Width                                    : 1 920 pixels
  15. Height                                   : 1 080 pixels
  16. Display aspect ratio                     : 16:9
  17. Frame rate mode                          : Constant
  18. Frame rate                               : 23.976 (24000/1001/189150) FPS
  19. Color space                              : YUV
  20. Chroma subsampling                       : 4:2:0
  21. Bit depth                                : 8 bits
  22. Scan type                                : Progressive
  23. Bits/(Pixel*Frame)                       : 0.260
  24. Stream size                              : 8.37 GiB (98%)
  25. Default                                  : Yes
  26. Forced                                   : No
  27. Color range                              : Limited
  28. Color primaries                          : BT.709
  29. Transfer characteristics                 : BT.709
  30. Matrix coefficients                      : BT.709
  31. Audio
  32. ID                                       : 2
  33. Format                                   : E-AC-3
  34. Format/Info                              : Enhanced AC-3
  35. Commercial name                          : Dolby Digital Plus
  36. Codec ID                                 : A_EAC3
  37. Duration                                 : 1 h 32 min
  38. Bit rate mode                            : Constant
  39. Bit rate                                 : 224 kb/s
  40. Channel(s)                               : 2 channels
  41. Channel layout                           : L R
  42. Sampling rate                            : 48.0 kHz
  43. Frame rate                               : 31.250 FPS (1536 SPF)
  44. Compression mode                         : Lossy
  45. Stream size                              : 148 MiB (2%)
  46. Language                                 : English
  47. Service kind                             : Complete Main
  48. Default                                  : Yes
  49. Forced                                   : No
  50. Text
  51. ID                                       : 3
  52. Format                                   : UTF-8
  53. Codec ID                                 : S_TEXT/UTF8
  54. Codec ID/Info                            : UTF-8 Plain Text
  55. Duration                                 : 1 h 29 min
  56. Bit rate                                 : 43 b/s
  57. Count of elements                        : 909
  58. Stream size                              : 28.3 KiB (0%)
  59. Language                                 : English
  60. Default                                  : No
  61. Forced                                   : No
复制代码






                                       
                                       

                                       
                                       
                                       




回复

使用道具 举报

懒得打字嘛,点击右侧快捷回复 【右侧内容,后台自定义】
您需要登录后才可以回帖 登录 | 立即加入

本版积分规则

Archiver|小黑屋| 蓝光电影网 |网站地图

Copyright © 2021 Comsenz Inc. Powered by 蓝光电影网

蓝光电影网

本站内容由用户自主分享和转载自互联网,转载目的在于传递更多信息,并不代表本网赞同其观点和对其真实性负责。

如有侵权、违反国家法律政策行为,请联系我们,我们会第一时间及时清除和处理!

举报反馈邮箱:[email protected]

快速回复 返回顶部 返回列表