找回密码

蓝光电影网

查看: 6|回复: 0

[剧情] 藕断丝连 Endless.2020.1080p.WEB-DL.DD5.1.H264-FGT 3.25GB

[复制链接]
蓝光币
386
发表于 2021-8-20 00:47:59 | 显示全部楼层 |阅读模式


◎译  名 藕断丝连 / Undying / 触不到的爱(台)
◎片  名 Endless
◎年  代 2020
◎产  地 美国
◎类  别 剧情 / 恋爱 / 奇异
◎语  言 英语
◎上映日期 2020-05-07(俄罗斯) / 2020-08-14(美国)
◎IMDb评分  5.3/10 from 50 users
◎IMDb链接  https://www.imdb.com/title/tt5723282
◎豆瓣评分 0/10 from 0 users
◎豆瓣链接 https://movie.douban.com/subject/26917097/
◎导  演 斯科特·斯皮尔 Scott Speer
◎编  剧 Andre Case / Oneil Sharma
◎主  演 法米克·詹森 Famke Janssen
       亚历山德拉·希普 Alexandra Shipp
       伊安·崔西 Ian Tracey
       尼古拉斯·汉密尔顿 Nicholas Hamilton
       帕特里克·吉尔莫 Patrick Gilmore
       德龙·霍顿 DeRon Horton
       凯瑟琳·拉夫·哈格奎斯特 Catherine Lough Haggquist
       艾伦·坡尔 Aaron Pearl
       艾迪·拉莫斯 Eddie Ramos
       BJ·哈里森 BJ Harrison
       芭芭拉·梅尔 Barbara Meier
       Alexa Barajas
       Zo? Belkin
       Melanie Walden
       Bradley James

◎标  签 尼古拉斯·汉密尔顿 | 奇异 | 美国 | 灵异 | 剧情 | 美国电影 | 恋爱 | 亚历山德拉·希普
◎简  介

  
  “小狂风女”亚历山德拉·希普、尼古拉斯·汉密尔顿([小丑回魂])商谈加盟斯科特·斯皮尔执导新片[藕断丝连](Endless,暂译),故事报告克里斯(汉密尔顿饰)、赖丽(希普饰)是对热恋的情侣,但是一次致命的变乱迫使两人阴阳两隔。
  1. Video
  2. ID                                       : 1
  3. Format                                   : AVC
  4. Format/Info                              : Advanced Video Codec
  5. Format profile                           : [email protected]
  6. Format settings                          : CABAC / 5 Ref Frames
  7. Format settings, CABAC                   : Yes
  8. Format settings, Reference frames        : 5 frames
  9. Codec ID                                 : V_MPEG4/ISO/AVC
  10. Duration                                 : 1 h 34 min
  11. Bit rate                                 : 4 556 kb/s
  12. Width                                    : 1 920 pixels
  13. Height                                   : 802 pixels
  14. Display aspect ratio                     : 2.40:1
  15. Frame rate mode                          : Constant
  16. Frame rate                               : 23.976 FPS
  17. Color space                              : YUV
  18. Chroma subsampling                       : 4:2:0
  19. Bit depth                                : 8 bits
  20. Scan type                                : Progressive
  21. Bits/(Pixel*Frame)                       : 0.123
  22. Stream size                              : 3.00 GiB (92%)
  23. Title                                    : Endless.2020.1080p.WEB-DL.DD5.1.H264-FGT
  24. Language                                 : English
  25. Default                                  : Yes
  26. Forced                                   : No
  27. Color range                              : Limited
  28. Color primaries                          : BT.709
  29. Transfer characteristics                 : BT.709
  30. Matrix coefficients                      : BT.709
  31. Audio
  32. ID                                       : 2
  33. Format                                   : AC-3
  34. Format/Info                              : Audio Coding 3
  35. Commercial name                          : Dolby Digital
  36. Codec ID                                 : A_AC3
  37. Duration                                 : 1 h 34 min
  38. Bit rate mode                            : Constant
  39. Bit rate                                 : 384 kb/s
  40. Channel(s)                               : 6 channels
  41. Channel layout                           : L R C LFE Ls Rs
  42. Sampling rate                            : 48.0 kHz
  43. Frame rate                               : 31.250 FPS (1536 SPF)
  44. Compression mode                         : Lossy
  45. Stream size                              : 259 MiB (8%)
  46. Title                                    : Endless.2020.1080p.WEB-DL.DD5.1.H264-FGT
  47. Language                                 : English
  48. Service kind                             : Complete Main
  49. Default                                  : Yes
  50. Forced                                   : No
  51. Text
  52. ID                                       : 3
  53. Format                                   : UTF-8
  54. Codec ID                                 : S_TEXT/UTF8
  55. Codec ID/Info                            : UTF-8 Plain Text
  56. Duration                                 : 1 h 24 min
  57. Bit rate                                 : 43 b/s
  58. Count of elements                        : 990
  59. Stream size                              : 26.7 KiB (0%)
  60. Language                                 : English
  61. Default                                  : Yes
  62. Forced                                   : No
  63. Menu
  64. 00:00:00.000                             : en:Chapter 01
  65. 00:10:06.000                             : en:Chapter 02
  66. 00:19:26.000                             : en:Chapter 03
  67. 00:30:27.000                             : en:Chapter 04
  68. 00:41:32.000                             : en:Chapter 05
  69. 00:53:26.000                             : en:Chapter 06
  70. 01:03:10.000                             : en:Chapter 07
  71. 01:13:01.000                             : en:Chapter 08
  72. 01:21:07.000                             : en:Chapter 09
  73. 01:29:37.000                             : en:Chapter 10
复制代码






                                       
                                       

                                       
                                       
                                       




回复

使用道具 举报

懒得打字嘛,点击右侧快捷回复 【右侧内容,后台自定义】
您需要登录后才可以回帖 登录 | 立即加入

本版积分规则

Archiver|小黑屋| 蓝光电影网 |网站地图

Copyright © 2021 Comsenz Inc. Powered by 蓝光电影网

蓝光电影网

本站内容由用户自主分享和转载自互联网,转载目的在于传递更多信息,并不代表本网赞同其观点和对其真实性负责。

如有侵权、违反国家法律政策行为,请联系我们,我们会第一时间及时清除和处理!

举报反馈邮箱:[email protected]

快速回复 返回顶部 返回列表