找回密码

蓝光电影网

查看: 9|回复: 0

[剧情] 美好事物/愈爱愈美丽 Beautiful.Thing.1996.1080p.WEBRip.DD2.0.x264-PTP 3.20GB

[复制链接]
蓝光币
386
发表于 2021-8-20 00:48:23 | 显示全部楼层 |阅读模式


◎译  名 美好事物 / 愈爱愈美丽(港) / 爱最美
◎片  名 Beautiful Thing
◎年  代 1996
◎产  地 英国
◎类  别 剧情 / 笑剧 / 恋爱 / 同性
◎语  言 英语
◎上映日期 1996-06-21
◎IMDb评分  7.5/10 from 22254 users
◎IMDb链接  https://www.imdb.com/title/tt0115640
◎豆瓣评分 8.3/10 from 10103 users
◎豆瓣链接 https://movie.douban.com/subject/1300426/
◎片  长 90 分钟
◎导  演 希提·麦克唐纳 Hettie MacDonald
◎编  剧 乔纳森·哈维 Jonathan Harvey
◎主  演 林达亨利 Linda Henry
       格伦·贝里 Glen Berry
       斯考特·尼尔 Scott Neal
       本·丹尼尔斯 Ben Daniels
       约翰·本菲尔德 John Benfield
       Terry Duggan
       杰洛爱德华 Jeillo Edwards
       贝丝·戈达德 Beth Goddard
       Davyd Harries
       Anna Karen
       Marlene Sidaway
       Julie Smith
       梅拉·沙尔 Meera Syal
       乔纳森·哈维 Jonathan Harvey

◎标  签 英国 | 同道 | 青春 | 同性 | 长大 | 恋爱 | Gay | 英国电影
◎简  介

  
  单亲家庭长大的Jamie(Glen Berry)由于不爱活动,在黉舍显得很分歧群,上学成为他最头疼的事,而随着年龄的增加,他同母亲的交换也有了障碍,特别在母亲交了个鲁莽憨直的男友后,他更不知若何与母亲相处。他的邻人,英俊的小伙子Ste(Scott Neal)与他相比,也好不到哪儿去,Ste经常遭嗜酒如命的父亲和哥哥拳打脚踢。
  某天,Ste遭家人殴打后又被扫地出门,Jamie的母亲不幸他把他叫抵家里同Jamie一路睡,两个少男第一夜虽没共枕,却对彼今生出异常感受,而随着同床日子的增加,他们渐渐爱上了对方,可是,麻烦也紧接而来。
  1. Video
  2. ID                                       : 1
  3. Format                                   : AVC
  4. Format/Info                              : Advanced Video Codec
  5. Format profile                           : [email protected]
  6. Format settings                          : CABAC / 5 Ref Frames
  7. Format settings, CABAC                   : Yes
  8. Format settings, Reference frames        : 5 frames
  9. Codec ID                                 : V_MPEG4/ISO/AVC
  10. Duration                                 : 1 h 27 min
  11. Bit rate                                 : 4 934 kb/s
  12. Width                                    : 1 920 pixels
  13. Height                                   : 1 080 pixels
  14. Display aspect ratio                     : 16:9
  15. Frame rate mode                          : Constant
  16. Frame rate                               : 25.000 FPS
  17. Color space                              : YUV
  18. Chroma subsampling                       : 4:2:0
  19. Bit depth                                : 8 bits
  20. Scan type                                : Progressive
  21. Bits/(Pixel*Frame)                       : 0.095
  22. Stream size                              : 3.00 GiB (94%)
  23. Writing library                          : x264 core 160 r10 22fcbe1
  24. Encoding settings                        : cabac=1 / ref=5 / deblock=1:0:0 / analyse=0x3:0x113 / me=hex / subme=8 / psy=1 / psy_rd=1.00:0.00 / mixed_ref=1 / me_range=16 / chroma_me=1 / trellis=2 / 8x8dct=1 / cqm=0 / deadzone=21,11 / fast_pskip=1 / chroma_qp_offset=-2 / threads=34 / lookahead_threads=5 / sliced_threads=0 / nr=0 / decimate=1 / interlaced=0 / bluray_compat=0 / stitchable=1 / constrained_intra=0 / bframes=3 / b_pyramid=2 / b_adapt=2 / b_bias=0 / direct=3 / weightb=1 / open_gop=0 / weightp=2 / keyint=infinite / keyint_min=25 / scenecut=40 / intra_refresh=0 / rc_lookahead=50 / rc=crf / mbtree=1 / crf=20.0 / qcomp=0.60 / qpmin=5 / qpmax=69 / qpstep=4 / vbv_maxrate=5500 / vbv_bufsize=15000 / crf_max=0.0 / nal_hrd=none / filler=0 / ip_ratio=1.40 / aq=1:1.00
  25. Default                                  : Yes
  26. Forced                                   : No
  27. Color range                              : Limited
  28. Color primaries                          : BT.709
  29. Transfer characteristics                 : BT.709
  30. Matrix coefficients                      : BT.709
  31. Audio
  32. ID                                       : 2
  33. Format                                   : AC-3
  34. Format/Info                              : Audio Coding 3
  35. Commercial name                          : Dolby Digital
  36. Codec ID                                 : A_AC3
  37. Duration                                 : 1 h 27 min
  38. Bit rate mode                            : Constant
  39. Bit rate                                 : 320 kb/s
  40. Channel(s)                               : 2 channels
  41. Channel layout                           : L R
  42. Sampling rate                            : 48.0 kHz
  43. Frame rate                               : 31.250 FPS (1536 SPF)
  44. Compression mode                         : Lossy
  45. Stream size                              : 200 MiB (6%)
  46. Language                                 : English
  47. Service kind                             : Complete Main
  48. Default                                  : Yes
  49. Forced                                   : No
复制代码





                                       
                                       

                                       
                                       
                                       




回复

使用道具 举报

懒得打字嘛,点击右侧快捷回复 【右侧内容,后台自定义】
您需要登录后才可以回帖 登录 | 立即加入

本版积分规则

Archiver|小黑屋| 蓝光电影网 |网站地图

Copyright © 2021 Comsenz Inc. Powered by 蓝光电影网

蓝光电影网

本站内容由用户自主分享和转载自互联网,转载目的在于传递更多信息,并不代表本网赞同其观点和对其真实性负责。

如有侵权、违反国家法律政策行为,请联系我们,我们会第一时间及时清除和处理!

举报反馈邮箱:[email protected]

快速回复 返回顶部 返回列表