找回密码

蓝光电影网

查看: 12|回复: 0

[剧情] 特斯拉/电力之父 Tesla.2020.1080p.WEBRip.DD5.1.x264-CM 5.54GB

[复制链接]
蓝光币
386
发表于 2021-8-20 00:48:41 | 显示全部楼层 |阅读模式


◎译  名 特斯拉 / 电力之父
◎片  名 Tesla
◎年  代 2020
◎产  地 美国
◎类  别 剧情 / 列传
◎语  言 英语
◎上映日期 2020-01-27(圣丹斯国际电影节) / 2020-08-21(美国)
◎IMDb评分  6.2/10 from 233 users
◎IMDb链接  https://www.imdb.com/title/tt5259822
◎豆瓣评分 0/10 from 0 users
◎豆瓣链接 https://movie.douban.com/subject/26684264/
◎片  长 103分钟
◎导  演 米歇尔·阿米瑞亚德 Michael Almereyda
◎编  剧 米歇尔·阿米瑞亚德 Michael Almereyda
◎主  演 伊桑·霍克 Ethan Hawke
       伊芙·休森 Eve Hewson
       凯尔·麦克拉克伦 Kyle MacLachlan
       汉娜·格罗斯 Hannah Gross
       约什·汉密尔顿 Josh Hamilton
       罗伊丝·史姑娘 Lois Smith
       艾邦·摩斯-巴克拉赫 Ebon Moss-Bachrach
       吉姆·加菲根 Jim Gaffigan
       露西·沃特斯 Lucy Walters
       詹姆斯·乌尔班尼亚克 James Urbaniak
       唐尼·科沙瓦茨 Donnie Keshawarz
       丽贝卡·达扬 Rebecca Dayan
       约翰·帕拉迪诺 John Palladino
       文森·德·保罗 Vincent De Paul
       汤姆·法雷尔 Tom Farrell
       罗伯特·约翰·加拉格尔 Robert John Gallagher
       Ian Lithgow
       Janelle Feigley
       Michael Mastro

◎标  签 特斯拉 | 列传 | 科学 | 伊桑霍克 | 美国 | 电影 | 记载片 | 科幻
◎简  介

  
  故事聚焦电气工程师、发现家尼古拉·特斯拉的奇迹及小我生活。
  1. Video
  2. ID                                       : 1
  3. Format                                   : AVC
  4. Format/Info                              : Advanced Video Codec
  5. Format profile                           : [email protected]
  6. Format settings                          : CABAC / 2 Ref Frames
  7. Format settings, CABAC                   : Yes
  8. Format settings, Reference frames        : 2 frames
  9. Codec ID                                 : V_MPEG4/ISO/AVC
  10. Duration                                 : 1 h 42 min
  11. Bit rate                                 : 7 361 kb/s
  12. Width                                    : 1 920 pixels
  13. Height                                   : 1 080 pixels
  14. Display aspect ratio                     : 16:9
  15. Frame rate mode                          : Constant
  16. Frame rate                               : 23.976 (24000/1001/189150) FPS
  17. Color space                              : YUV
  18. Chroma subsampling                       : 4:2:0
  19. Bit depth                                : 8 bits
  20. Scan type                                : Progressive
  21. Bits/(Pixel*Frame)                       : 0.148
  22. Stream size                              : 5.26 GiB (95%)
  23. Writing library                          : x264 core 155 r2901 7d0ff22
  24. Default                                  : Yes
  25. Forced                                   : No
  26. Color range                              : Limited
  27. Color primaries                          : BT.709
  28. Transfer characteristics                 : BT.709
  29. Matrix coefficients                      : BT.709
  30. Audio
  31. ID                                       : 2
  32. Format                                   : AC-3
  33. Format/Info                              : Audio Coding 3
  34. Commercial name                          : Dolby Digital
  35. Codec ID                                 : A_AC3
  36. Duration                                 : 1 h 42 min
  37. Bit rate mode                            : Constant
  38. Bit rate                                 : 384 kb/s
  39. Channel(s)                               : 6 channels
  40. Channel layout                           : L R C LFE Ls Rs
  41. Sampling rate                            : 48.0 kHz
  42. Frame rate                               : 31.250 FPS (1536 SPF)
  43. Compression mode                         : Lossy
  44. Stream size                              : 281 MiB (5%)
  45. Language                                 : English
  46. Service kind                             : Complete Main
  47. Default                                  : Yes
  48. Forced                                   : No
复制代码





                                       
                                       

                                       
                                       
                                       




回复

使用道具 举报

懒得打字嘛,点击右侧快捷回复 【右侧内容,后台自定义】
您需要登录后才可以回帖 登录 | 立即加入

本版积分规则

Archiver|小黑屋| 蓝光电影网 |网站地图

Copyright © 2021 Comsenz Inc. Powered by 蓝光电影网

蓝光电影网

本站内容由用户自主分享和转载自互联网,转载目的在于传递更多信息,并不代表本网赞同其观点和对其真实性负责。

如有侵权、违反国家法律政策行为,请联系我们,我们会第一时间及时清除和处理!

举报反馈邮箱:[email protected]

快速回复 返回顶部 返回列表