找回密码

蓝光电影网

查看: 3|回复: 0

[剧情] 阿卡丁先生 Mr.Arkadin.1955.1080p.HMAX.WEBRip.DD2.0.x264-QOQ 6.03GB

[复制链接]
蓝光币
382
发表于 2021-8-20 00:48:49 | 显示全部楼层 |阅读模式


◎译  名 阿卡丁师长 / Confidential Report / 谋害 / 阿卡汀师长
◎片  名 Mr. Arkadin
◎年  代 1955
◎产  地 法国 / 西班牙 / 瑞士
◎类  别 剧情 / 犯罪 / 黑色电影
◎语  言 英语
◎上映日期 1955-03
◎IMDb评分  7.3/10 from 7402 users
◎IMDb链接  https://www.imdb.com/title/tt0048393
◎豆瓣评分 7.8/10 from 841 users
◎豆瓣链接 https://movie.douban.com/subject/1303567/
◎片  长 93 分钟
◎导  演 Orson Welles
◎编  剧 Orson Welles
◎主  演 Orson Welles
       Michael Redgrave
       Patricia Medina
       Akim Tamiroff
       Mischa Auer

◎标  签 奥逊·威尔斯 | 美国 | OrsonWelles | Orson_Welles | 1955 | 法国 | 美国电影 | CC
◎简  介

  
  仆人公阿卡汀权可倾国,一个陌生汉子成功接近他的女儿,并成长爱情。阿卡汀要撤除这个汉子,以落空记忆为捏词,拜托汉子观察他的曩昔。汉子发现每个相关人物都逐一被杀,才惊觉自己坠进灭亡迷阵当中。
  1. Video
  2. ID                                       : 1
  3. Format                                   : AVC
  4. Format/Info                              : Advanced Video Codec
  5. Format profile                           : [email protected]
  6. Format settings                          : CABAC / 4 Ref Frames
  7. Format settings, CABAC                   : Yes
  8. Format settings, Reference frames        : 4 frames
  9. Codec ID                                 : V_MPEG4/ISO/AVC
  10. Duration                                 : 1 h 40 min
  11. Bit rate mode                            : Variable
  12. Bit rate                                 : 8 246 kb/s
  13. Maximum bit rate                         : 12.4 Mb/s
  14. Width                                    : 1 920 pixels
  15. Height                                   : 1 080 pixels
  16. Display aspect ratio                     : 16:9
  17. Frame rate mode                          : Constant
  18. Frame rate                               : 23.976 (24000/1001/189150) FPS
  19. Color space                              : YUV
  20. Chroma subsampling                       : 4:2:0
  21. Bit depth                                : 8 bits
  22. Scan type                                : Progressive
  23. Bits/(Pixel*Frame)                       : 0.166
  24. Stream size                              : 5.76 GiB (96%)
  25. Default                                  : Yes
  26. Forced                                   : No
  27. Audio
  28. ID                                       : 2
  29. Format                                   : AC-3
  30. Format/Info                              : Audio Coding 3
  31. Commercial name                          : Dolby Digital
  32. Codec ID                                 : A_AC3
  33. Duration                                 : 1 h 40 min
  34. Bit rate mode                            : Constant
  35. Bit rate                                 : 384 kb/s
  36. Channel(s)                               : 2 channels
  37. Channel layout                           : L R
  38. Sampling rate                            : 48.0 kHz
  39. Frame rate                               : 31.250 FPS (1536 SPF)
  40. Compression mode                         : Lossy
  41. Stream size                              : 275 MiB (4%)
  42. Language                                 : English
  43. Service kind                             : Complete Main
  44. Default                                  : Yes
  45. Forced                                   : No
  46. Text
  47. ID                                       : 3
  48. Format                                   : UTF-8
  49. Codec ID                                 : S_TEXT/UTF8
  50. Codec ID/Info                            : UTF-8 Plain Text
  51. Duration                                 : 1 h 39 min
  52. Bit rate                                 : 97 b/s
  53. Count of elements                        : 2521
  54. Stream size                              : 71.0 KiB (0%)
  55. Default                                  : No
  56. Forced                                   : No
复制代码






                                       
                                       

                                       
                                       
                                       




回复

使用道具 举报

懒得打字嘛,点击右侧快捷回复 【右侧内容,后台自定义】
您需要登录后才可以回帖 登录 | 立即加入

本版积分规则

Archiver|小黑屋| 蓝光电影网 |网站地图

Copyright © 2021 Comsenz Inc. Powered by 蓝光电影网

蓝光电影网

本站内容由用户自主分享和转载自互联网,转载目的在于传递更多信息,并不代表本网赞同其观点和对其真实性负责。

如有侵权、违反国家法律政策行为,请联系我们,我们会第一时间及时清除和处理!

举报反馈邮箱:[email protected]

快速回复 返回顶部 返回列表