找回密码

蓝光电影网

查看: 20|回复: 0

[剧情] 甜蜜的梦魇 Perfumed.Nightmare.1977.1080p.AMZN.WEBRip.DDP2.0.x264-TEPES 6.69GB

[复制链接]
蓝光币
382
发表于 2021-8-20 00:49:06 | 显示全部楼层 |阅读模式


◎译  名 甜蜜的梦魇 / Perfumed Nightmare
◎片  名 Mababangong bangungot
◎年  代 1977
◎产  地 菲律宾
◎类  别 剧情 / 笑剧
◎语  言 英语
◎上映日期 1977-06(柏林电影节)
◎IMDb评分  7.1/10 from 402 users
◎IMDb链接  https://www.imdb.com/title/tt0076341
◎豆瓣评分 8.3/10 from 334 users
◎豆瓣链接 https://movie.douban.com/subject/3118188/
◎片  长 93 分钟
◎导  演 Kidlat Tahimik
◎编  剧 Kidlat Tahimik
◎主  演 Mang Fely
       Dolores Santamaria
       Georgette Baudry

◎标  签 菲律宾 | 菲律宾电影 | 1970s | 1977 | 奇拉·塔西米克 | 东南亚 | KidlatTahimik | 列传
◎简  介

  
  塔希米是小巴驾驶员,天天要去马尼拉城内拉客赢利,他对美国的任何事物都很感爱好,不管是电影、音乐、还是他的梦中情人 - 美国蜜斯,他天天必听的电台是“美国之声”,特别对老美的太空计划沉迷,特崇敬从东德潜逃的火箭科学家Werner Von Braun,还在村里组了一个WVB迷协会,招收当地一些小孩做会员,并经过卖冰棒为菲律宾蜜斯的选美活动筹款。
  塔希米以为村子在逐步退化,跟不上时代的步伐,村民们落后的生活方式让他感应悲痛,甚诚意里看不起从小一路长大的朋友,由于他现在是竹屋工匠,虽然建造竹屋是菲律宾人的传统身手,但现在已经没有几多人愿意学了,而塔希米想要的是更宽阔明亮的楼房,想要过一种更现代化的“国际生活”。某天在路上他结识了一个美国贩子,贩子正需一私人司机,因而塔希米和他一路来到了巴黎。在巴黎的生活开初让他感应新颖不已,但随着他唯一的朋友,一个巴黎陌头的小商贩因遭到四周超级市场的行业逼迫和迫害而没法经营终极自杀,塔希米起头对这个金钱至上的本钱主义社会发生了疑问,为什么这个天下首先需要的是超市?为什么无数旧楼房被推倒后还要在上面建起更奢华的别墅?他试图用自己的方式匹敌,但很称心识到无用,并实时从梦中醒觉,重返了故乡。
◎获奖情况  
  第27届柏林国际电影节(1977)
  费比西奖(国际影评人同盟奖) 论坛及新电影论坛最好影片 奇拉·塔西米克
  1. Video
  2. ID                                       : 1
  3. Format                                   : AVC
  4. Format/Info                              : Advanced Video Codec
  5. Format profile                           : [email protected]
  6. Format settings                          : CABAC / 4 Ref Frames
  7. Format settings, CABAC                   : Yes
  8. Format settings, Reference frames        : 4 frames
  9. Codec ID                                 : V_MPEG4/ISO/AVC
  10. Duration                                 : 1 h 34 min
  11. Bit rate mode                            : Constant
  12. Bit rate                                 : 10 000 kb/s
  13. Width                                    : 1 440 pixels
  14. Height                                   : 1 080 pixels
  15. Display aspect ratio                     : 4:3
  16. Frame rate mode                          : Constant
  17. Frame rate                               : 29.970 (30000/1001/189150) FPS
  18. Color space                              : YUV
  19. Chroma subsampling                       : 4:2:0
  20. Bit depth                                : 8 bits
  21. Scan type                                : Progressive
  22. Bits/(Pixel*Frame)                       : 0.215
  23. Stream size                              : 6.54 GiB (98%)
  24. Default                                  : Yes
  25. Forced                                   : No
  26. Color range                              : Limited
  27. Color primaries                          : BT.709
  28. Transfer characteristics                 : BT.709
  29. Matrix coefficients                      : BT.709
  30. Audio
  31. ID                                       : 2
  32. Format                                   : E-AC-3
  33. Format/Info                              : Enhanced AC-3
  34. Commercial name                          : Dolby Digital Plus
  35. Codec ID                                 : A_EAC3
  36. Duration                                 : 1 h 34 min
  37. Bit rate mode                            : Constant
  38. Bit rate                                 : 224 kb/s
  39. Channel(s)                               : 2 channels
  40. Channel layout                           : L R
  41. Sampling rate                            : 48.0 kHz
  42. Frame rate                               : 31.250 FPS (1536 SPF)
  43. Compression mode                         : Lossy
  44. Stream size                              : 152 MiB (2%)
  45. Language                                 : English
  46. Service kind                             : Complete Main
  47. Default                                  : Yes
  48. Forced                                   : No
  49. Text
  50. ID                                       : 3
  51. Format                                   : UTF-8
  52. Codec ID                                 : S_TEXT/UTF8
  53. Codec ID/Info                            : UTF-8 Plain Text
  54. Duration                                 : 1 h 29 min
  55. Bit rate                                 : 32 b/s
  56. Count of elements                        : 539
  57. Stream size                              : 21.3 KiB (0%)
  58. Title                                    : Portugu?as
  59. Language                                 : Portuguese
  60. Default                                  : No
  61. Forced                                   : No
复制代码





                                       
                                       

                                       
                                       
                                       




回复

使用道具 举报

懒得打字嘛,点击右侧快捷回复 【右侧内容,后台自定义】
您需要登录后才可以回帖 登录 | 立即加入

本版积分规则

Archiver|小黑屋| 蓝光电影网 |网站地图

Copyright © 2021 Comsenz Inc. Powered by 蓝光电影网

蓝光电影网

本站内容由用户自主分享和转载自互联网,转载目的在于传递更多信息,并不代表本网赞同其观点和对其真实性负责。

如有侵权、违反国家法律政策行为,请联系我们,我们会第一时间及时清除和处理!

举报反馈邮箱:[email protected]

快速回复 返回顶部 返回列表