找回密码

蓝光电影网

查看: 7|回复: 0

[剧情] 主宰这座城 Run.This.Town.2019.1080p.AMZN.WEBRip.DDP5.1.x264-NTb 5.71GB

[复制链接]
蓝光币
382
发表于 2021-8-20 00:49:43 | 显示全部楼层 |阅读模式


◎译  名 主宰这座城
◎片  名 Run This Town
◎年  代 2019
◎产  地 加拿大
◎类  别 剧情
◎语  言 英语
◎上映日期 2019-03-09(西南偏南电影节)
◎IMDb评分  4.5/10 from 297 users
◎IMDb链接  https://www.imdb.com/title/tt7596680
◎豆瓣评分 0/10 from 0 users
◎豆瓣链接 https://movie.douban.com/subject/30180772/
◎片  长 99分钟
◎导  演 Ricky Tollman
◎编  剧 Ricky Tollman
◎主  演 梅纳·玛索德 Mena Massoud
       妮娜·杜波夫 Nina Dobrev
       斯科特·斯比德曼 Scott Speedman
       戴米恩·路易斯 Damian Lewis
       詹妮弗·艾莉 Jennifer Ehle
       吉尔·贝罗斯 Gil Bellows
       本·普拉特 Ben Platt
       丽贝卡·利迪亚德 Rebecca Liddiard
       劳伦·科林斯 Lauren Collins
       贾斯汀·凯利 Justin Kelly
       吉纳维芙·康 Genevieve Kang
       阿莱格拉·富尔顿 Allegra Fulton
       莉亚·杜兹 Leah Doz
       Kathryn Greenwood
       Zarrin Darnell-Martin
       Emily Dickinson
       Emmanuel Kabongo

◎标  签 剧情 | 政治 | 加拿大 | 加拿大电影 | 戴米恩·路易斯 | 美(加)国电影 | 美国 | 妮娜·杜波夫
◎简  介

  
  本·普拉特(《致埃文·汉森》)、妮娜·杜波夫、Mena Massoud(《阿拉丁》)和戴米恩·刘易斯将主演新片《主宰这座城》(Run This Town) , Ricky Tollman编写剧本,并首执导筒。报告一个年轻记者(普拉特)急于证实自己,他发现了一桩丑闻,触及到一位浮华的、不成猜测的政客(刘易斯),政客的助手们(杜波夫和Massoud)试图管束住他们的老板,为保住工作而停止奥秘行动。 Randy Manis(《总统杀机》《杀死汝爱》)、 Jonathan Bronfman(《帕蒂蛋糕$》《星图》)制片。
  1. Video
  2. ID                                       : 1
  3. Format                                   : AVC
  4. Format/Info                              : Advanced Video Codec
  5. Format profile                           : [email protected]
  6. Format settings                          : CABAC / 4 Ref Frames
  7. Format settings, CABAC                   : Yes
  8. Format settings, Reference frames        : 4 frames
  9. Codec ID                                 : V_MPEG4/ISO/AVC
  10. Duration                                 : 1 h 38 min
  11. Bit rate mode                            : Constant
  12. Bit rate                                 : 7 660 kb/s
  13. Nominal bit rate                         : 10 000 kb/s
  14. Width                                    : 1 920 pixels
  15. Height                                   : 800 pixels
  16. Display aspect ratio                     : 2.40:1
  17. Frame rate mode                          : Constant
  18. Frame rate                               : 23.976 (24000/1001/189150) FPS
  19. Color space                              : YUV
  20. Chroma subsampling                       : 4:2:0
  21. Bit depth                                : 8 bits
  22. Scan type                                : Progressive
  23. Bits/(Pixel*Frame)                       : 0.208
  24. Stream size                              : 5.27 GiB (92%)
  25. Default                                  : Yes
  26. Forced                                   : No
  27. Color range                              : Limited
  28. Color primaries                          : BT.709
  29. Transfer characteristics                 : BT.709
  30. Matrix coefficients                      : BT.709
  31. Audio
  32. ID                                       : 2
  33. Format                                   : E-AC-3
  34. Format/Info                              : Enhanced AC-3
  35. Commercial name                          : Dolby Digital Plus
  36. Codec ID                                 : A_EAC3
  37. Duration                                 : 1 h 38 min
  38. Bit rate mode                            : Constant
  39. Bit rate                                 : 640 kb/s
  40. Channel(s)                               : 6 channels
  41. Channel layout                           : L R C LFE Ls Rs
  42. Sampling rate                            : 48.0 kHz
  43. Frame rate                               : 31.250 FPS (1536 SPF)
  44. Compression mode                         : Lossy
  45. Stream size                              : 451 MiB (8%)
  46. Language                                 : English
  47. Service kind                             : Complete Main
  48. Default                                  : Yes
  49. Forced                                   : No
  50. Text
  51. ID                                       : 3
  52. Format                                   : UTF-8
  53. Codec ID                                 : S_TEXT/UTF8
  54. Codec ID/Info                            : UTF-8 Plain Text
  55. Duration                                 : 1 h 38 min
  56. Bit rate                                 : 85 b/s
  57. Count of elements                        : 1977
  58. Stream size                              : 61.8 KiB (0%)
  59. Title                                    : SDH
  60. Language                                 : English
  61. Default                                  : No
  62. Forced                                   : No
  63. Menu
  64. 00:00:00.000                             : en:Studio Logo
  65. 00:00:29.000                             : en:Opening Credits
  66. 00:02:33.000                             : en:Scene 3
  67. 00:05:59.000                             : en:Title Sequence
  68. 00:06:01.000                             : en:Scene 5
  69. 00:11:33.000                             : en:Scene 6
  70. 00:17:09.000                             : en:Scene 7
  71. 00:22:05.000                             : en:Scene 8
  72. 00:26:38.000                             : en:Scene 9
  73. 00:33:29.000                             : en:Scene 10
  74. 00:38:49.000                             : en:Scene 11
  75. 00:42:34.000                             : en:Scene 12
  76. 00:52:12.000                             : en:Scene 13
  77. 00:58:27.000                             : en:Scene 14
  78. 01:03:16.000                             : en:Scene 15
  79. 01:09:24.000                             : en:Scene 16
  80. 01:13:47.000                             : en:Scene 17
  81. 01:15:44.000                             : en:Scene 18
  82. 01:24:49.000                             : en:Scene 19
  83. 01:29:00.000                             : en:Scene 20
  84. 01:35:06.000                             : en:End Credits
复制代码





                                       
                                       

                                       
                                       
                                       




回复

使用道具 举报

懒得打字嘛,点击右侧快捷回复 【右侧内容,后台自定义】
您需要登录后才可以回帖 登录 | 立即加入

本版积分规则

Archiver|小黑屋| 蓝光电影网 |网站地图

Copyright © 2021 Comsenz Inc. Powered by 蓝光电影网

蓝光电影网

本站内容由用户自主分享和转载自互联网,转载目的在于传递更多信息,并不代表本网赞同其观点和对其真实性负责。

如有侵权、违反国家法律政策行为,请联系我们,我们会第一时间及时清除和处理!

举报反馈邮箱:[email protected]

快速回复 返回顶部 返回列表