找回密码

蓝光电影网

查看: 14|回复: 0

[剧情] 挚友亲邻/你的朋友和邻居们 Your.Friends.and.Neighbors.1998.1080p.PCOK.WEBRip.DDP5.1.x264-monkee 5.15GB

[复制链接]
蓝光币
426
发表于 2021-8-20 00:49:53 | 显示全部楼层 |阅读模式


◎译  名 好友亲邻/你的朋友和邻人们/奇离关系
◎片  名 Your Friends & Neighbors
◎年  代 1998
◎产  地 美国
◎类  别 剧情 / 笑剧
◎语  言 英语
◎上映日期 1998-08-21
◎IMDb评分  6.3/10 from 7613 users
◎IMDb链接  https://www.imdb.com/title/tt0119517/
◎豆瓣评分 6.2/10 from 139 users
◎豆瓣链接 https://movie.douban.com/subject/1293884/
◎片  长 100 分钟
◎导  演 尼尔·拉布特 Neil LaBute
◎编  剧 尼尔·拉布特 Neil LaBute
◎主  演 艾米·布伦尼曼 Amy Brenneman
       艾伦·艾克哈特 Aaron Eckhart
       凯瑟琳·基纳 Catherine Keener
       娜塔莎·金斯基 Nastassja Kinski
       本·斯蒂勒 Ben Stiller
◎标  签 美国 | LGBT | 美国电影 | 笑剧 | 1998 | BenStiller | 电影 | les
◎简  介


  Theater instructor Jerry starts an affair with Mary, and that starts a chain of events that affect their respective partners Terri and Barry and other characters in the film, creating a web of relationships.
  1. Video
  2. ID                                       : 1
  3. Format                                   : AVC
  4. Format/Info                              : Advanced Video Codec
  5. Format profile                           : [email protected]
  6. Format settings                          : CABAC / 4 Ref Frames
  7. Format settings, CABAC                   : Yes
  8. Format settings, Reference frames        : 4 frames
  9. Codec ID                                 : V_MPEG4/ISO/AVC
  10. Duration                                 : 1 h 39 min
  11. Bit rate                                 : 7 181 kb/s
  12. Nominal bit rate                         : 7 814 kb/s
  13. Width                                    : 1 920 pixels
  14. Height                                   : 1 080 pixels
  15. Display aspect ratio                     : 16:9
  16. Frame rate mode                          : Constant
  17. Frame rate                               : 23.976 (24000/1001/189150) FPS
  18. Color space                              : YUV
  19. Chroma subsampling                       : 4:2:0
  20. Bit depth                                : 8 bits
  21. Scan type                                : Progressive
  22. Bits/(Pixel*Frame)                       : 0.144
  23. Stream size                              : 5.02 GiB (97%)
  24. Writing library                          : x264 core 160 r3011 cde9a93
  25. Encoding settings                        : cabac=1 / ref=4 / deblock=1:0:0 / analyse=0x3:0x113 / me=umh / subme=7 / psy=1 / psy_rd=0.00:0.00 / mixed_ref=1 / me_range=16 / chroma_me=1 / trellis=1 / 8x8dct=1 / cqm=0 / deadzone=21,11 / fast_pskip=0 / chroma_qp_offset=0 / threads=34 / lookahead_threads=5 / sliced_threads=0 / nr=0 / decimate=1 / interlaced=0 / bluray_compat=0 / constrained_intra=0 / bframes=16 / b_pyramid=2 / b_adapt=1 / b_bias=0 / direct=1 / weightb=1 / open_gop=0 / weightp=2 / keyint=48 / keyint_min=25 / scenecut=0 / intra_refresh=0 / rc_lookahead=40 / rc=2pass / mbtree=1 / bitrate=7814 / ratetol=1.0 / qcomp=0.60 / qpmin=10 / qpmax=51 / qpstep=4 / cplxblur=20.0 / qblur=0.5 / vbv_maxrate=7830 / vbv_bufsize=7830 / nal_hrd=none / filler=0 / ip_ratio=1.41 / aq=1:1.00
  26. Default                                  : Yes
  27. Forced                                   : No
  28. Audio
  29. ID                                       : 2
  30. Format                                   : E-AC-3
  31. Format/Info                              : Enhanced AC-3
  32. Commercial name                          : Dolby Digital Plus
  33. Codec ID                                 : A_EAC3
  34. Duration                                 : 1 h 39 min
  35. Bit rate mode                            : Constant
  36. Bit rate                                 : 192 kb/s
  37. Channel(s)                               : 6 channels
  38. Channel layout                           : L R C LFE Ls Rs
  39. Sampling rate                            : 48.0 kHz
  40. Frame rate                               : 31.250 FPS (1536 SPF)
  41. Compression mode                         : Lossy
  42. Stream size                              : 137 MiB (3%)
  43. Language                                 : English
  44. Service kind                             : Complete Main
  45. Default                                  : Yes
  46. Forced                                   : No
  47. Text
  48. ID                                       : 3
  49. Format                                   : UTF-8
  50. Codec ID                                 : S_TEXT/UTF8
  51. Codec ID/Info                            : UTF-8 Plain Text
  52. Duration                                 : 1 h 39 min
  53. Bit rate                                 : 66 b/s
  54. Count of elements                        : 1640
  55. Stream size                              : 48.4 KiB (0%)
  56. Title                                    : SDH
  57. Language                                 : English
  58. Default                                  : No
  59. Forced                                   : No
  60. Menu
  61. 01:36:14.000                             : en:Credits
复制代码






                                       
                                       

                                       
                                       
                                       




回复

使用道具 举报

懒得打字嘛,点击右侧快捷回复 【右侧内容,后台自定义】
您需要登录后才可以回帖 登录 | 立即加入

本版积分规则

Archiver|小黑屋| 蓝光电影网 |网站地图

Copyright © 2021 Comsenz Inc. Powered by 蓝光电影网

蓝光电影网

本站内容由用户自主分享和转载自互联网,转载目的在于传递更多信息,并不代表本网赞同其观点和对其真实性负责。

如有侵权、违反国家法律政策行为,请联系我们,我们会第一时间及时清除和处理!

举报反馈邮箱:[email protected]

快速回复 返回顶部 返回列表