找回密码

蓝光电影网

查看: 10|回复: 0

[剧情] 冰蓝布鲁斯 Ice.Blues.2008.1080p.AMZN.WEBRip.DDP2.0.x264-iKA 5.75GB

[复制链接]
蓝光币
426
发表于 2021-8-20 00:50:06 | 显示全部楼层 |阅读模式


◎译  名 冰蓝布鲁斯/Ice Blues: A Donald Strachey Mystery
◎片  名 Ice Blues
◎年  代 2008
◎产  地 加拿大,美国
◎类  别 剧情 / 悬疑 / 犯罪
◎语  言 英语
◎上映日期 2008-09-05
◎IMDb评分  6.5/10 from 553 users
◎IMDb链接  https://www.imdb.com/title/tt1130987/
◎豆瓣评分 7.2/10 from 823 users
◎豆瓣链接 https://movie.douban.com/subject/3205316/
◎片  长 98 分钟
◎主  演 布里特妮·威尔逊 Brittney Wilson
       查德·艾伦 Chad Allen
       尼尔森·王 Nelson Wong
       塞巴斯蒂安·罗伯特斯 Sebastien Roberts
       Alfonso Quijada
       Michael Jonsson
       塔拉斯·库斯托伊克 Taras Kostyuk
       艾德里安·霍姆斯 Adrian Holmes
       塞巴斯蒂安·斯宾赛 Sebastian Spence
       Spencer Maybee
       克里斯蒂安·特西尔 Christian Tessier
◎标  签 悬疑 | 侦察 | 同道 | 美国 | 犯罪 | gay | 同性 | 美国电影
◎简  介


  史特拉齐(查德·艾伦 Chad Allen 饰)怎样也想不到,自己和爱人提米(塞巴斯蒂安·斯宾赛 Sebastian Spence 饰)居然被卷入了一宗凶杀案中。死者名叫杰克(Jason Poulsen 饰),他曾告诉过提米一笔巨额捐钱的存在,而这笔捐钱居然被寄到了提米的手中。就这样,提米和史特拉齐成为了凶手追击的工具。
  
  在杰克和其祖父布蓝(Myron Natwick 饰)配合经营的律师事务所里,提米找到了一些相当重要的线索。经过观察,史特拉齐发现律师事务所不外是一个幌子,其真适用处是用来拍摄违法的未成年人色情电影。在结识了在此处工作的名叫莉拉(Brittney Wilson 饰)的女孩后,史特拉齐和提米行将揭开最初的真相。
  1. Video
  2. ID                                       : 1
  3. Format                                   : AVC
  4. Format/Info                              : Advanced Video Codec
  5. Format profile                           : [email protected]
  6. Format settings                          : CABAC / 4 Ref Frames
  7. Format settings, CABAC                   : Yes
  8. Format settings, Reference frames        : 4 frames
  9. Codec ID                                 : V_MPEG4/ISO/AVC
  10. Duration                                 : 1 h 24 min
  11. Bit rate mode                            : Constant
  12. Bit rate                                 : 9 516 kb/s
  13. Nominal bit rate                         : 10 000 kb/s
  14. Width                                    : 1 920 pixels
  15. Height                                   : 1 080 pixels
  16. Display aspect ratio                     : 16:9
  17. Frame rate mode                          : Constant
  18. Frame rate                               : 23.976 (24000/1001/189150) FPS
  19. Color space                              : YUV
  20. Chroma subsampling                       : 4:2:0
  21. Bit depth                                : 8 bits
  22. Scan type                                : Progressive
  23. Bits/(Pixel*Frame)                       : 0.191
  24. Stream size                              : 5.61 GiB (98%)
  25. Default                                  : Yes
  26. Forced                                   : No
  27. Color range                              : Limited
  28. Color primaries                          : BT.709
  29. Transfer characteristics                 : BT.709
  30. Matrix coefficients                      : BT.709
  31. Audio
  32. ID                                       : 2
  33. Format                                   : E-AC-3
  34. Format/Info                              : Enhanced AC-3
  35. Commercial name                          : Dolby Digital Plus
  36. Codec ID                                 : A_EAC3
  37. Duration                                 : 1 h 24 min
  38. Bit rate mode                            : Constant
  39. Bit rate                                 : 224 kb/s
  40. Channel(s)                               : 2 channels
  41. Channel layout                           : L R
  42. Sampling rate                            : 48.0 kHz
  43. Frame rate                               : 31.250 FPS (1536 SPF)
  44. Compression mode                         : Lossy
  45. Stream size                              : 135 MiB (2%)
  46. Language                                 : English
  47. Service kind                             : Complete Main
  48. Default                                  : Yes
  49. Forced                                   : No
  50. Text
  51. ID                                       : 3
  52. Format                                   : UTF-8
  53. Codec ID                                 : S_TEXT/UTF8
  54. Codec ID/Info                            : UTF-8 Plain Text
  55. Duration                                 : 1 h 24 min
  56. Bit rate                                 : 65 b/s
  57. Count of elements                        : 1448
  58. Stream size                              : 40.4 KiB (0%)
  59. Title                                    : SDH
  60. Language                                 : English
  61. Default                                  : No
  62. Forced                                   : No
复制代码






                                       
                                       

                                       
                                       
                                       




回复

使用道具 举报

懒得打字嘛,点击右侧快捷回复 【右侧内容,后台自定义】
您需要登录后才可以回帖 登录 | 立即加入

本版积分规则

Archiver|小黑屋| 蓝光电影网 |网站地图

Copyright © 2021 Comsenz Inc. Powered by 蓝光电影网

蓝光电影网

本站内容由用户自主分享和转载自互联网,转载目的在于传递更多信息,并不代表本网赞同其观点和对其真实性负责。

如有侵权、违反国家法律政策行为,请联系我们,我们会第一时间及时清除和处理!

举报反馈邮箱:[email protected]

快速回复 返回顶部 返回列表