找回密码

蓝光电影网

查看: 37|回复: 0

[剧情] 特斯拉/电力之父 Tesla.2020.1080p.AMZN.WEBRip.DDP5.1.x264-NTG 6.85GB

[复制链接]
蓝光币
426
发表于 2021-8-20 00:50:10 | 显示全部楼层 |阅读模式


◎译  名 特斯拉/电力之父
◎片  名 Tesla
◎年  代 2020
◎产  地 美国
◎类  别 剧情 / 列传
◎语  言 英语
◎上映日期 2020-01-27(圣丹斯国际电影节) / 2020-08-13(美国收集)
◎IMDb评分  5.1/10 from 1180 users
◎IMDb链接  https://www.imdb.com/title/tt5259822/
◎豆瓣评分 6.0/10 from 82 users
◎豆瓣链接 https://movie.douban.com/subject/26684264/
◎片  长 103分钟
◎导  演 米歇尔·阿米瑞亚德 Michael Almereyda
◎编  剧 米歇尔·阿米瑞亚德 Michael Almereyda
◎主  演 伊桑·霍克 Ethan Hawke
       伊芙·休森 Eve Hewson
       凯尔·麦克拉克伦 Kyle MacLachlan
       汉娜·格罗斯 Hannah Gross
       约什·汉密尔顿 Josh Hamilton
       罗伊丝·史姑娘 Lois Smith
       艾邦·摩斯-巴克拉赫 Ebon Moss-Bachrach
       吉姆·加菲根 Jim Gaffigan
       露西·沃特斯 Lucy Walters
       詹姆斯·乌尔班尼亚克 James Urbaniak
       唐尼·科沙瓦茨 Donnie Keshawarz
       丽贝卡·达扬 Rebecca Dayan
       约翰·帕拉迪诺 John Palladino
       文森·德·保罗 Vincent De Paul
       汤姆·法雷尔 Tom Farrell
       罗伯特·约翰·加拉格尔 Robert John Gallagher
       Michael Mastro
◎标  签 特斯拉 | 列传 | 美国 | 科学 | 伊桑霍克 | 记载片 | 电影 | 2020
◎简  介


  故事聚焦电气工程师、发现家尼古拉·特斯拉的奇迹及小我生活。
  1. Video
  2. ID                                       : 1
  3. Format                                   : AVC
  4. Format/Info                              : Advanced Video Codec
  5. Format profile                           : [email protected]
  6. Format settings                          : CABAC / 4 Ref Frames
  7. Format settings, CABAC                   : Yes
  8. Format settings, Reference frames        : 4 frames
  9. Codec ID                                 : V_MPEG4/ISO/AVC
  10. Duration                                 : 1 h 42 min
  11. Bit rate mode                            : Constant
  12. Bit rate                                 : 8 922 kb/s
  13. Nominal bit rate                         : 10 000 kb/s
  14. Width                                    : 1 920 pixels
  15. Height                                   : 1 040 pixels
  16. Display aspect ratio                     : 1.85:1
  17. Frame rate mode                          : Constant
  18. Frame rate                               : 23.976 (24000/1001/189150) FPS
  19. Color space                              : YUV
  20. Chroma subsampling                       : 4:2:0
  21. Bit depth                                : 8 bits
  22. Scan type                                : Progressive
  23. Bits/(Pixel*Frame)                       : 0.186
  24. Stream size                              : 6.39 GiB (93%)
  25. Default                                  : Yes
  26. Forced                                   : No
  27. Color range                              : Limited
  28. Color primaries                          : BT.709
  29. Transfer characteristics                 : BT.709
  30. Matrix coefficients                      : BT.709
  31. Audio
  32. ID                                       : 2
  33. Format                                   : E-AC-3
  34. Format/Info                              : Enhanced AC-3
  35. Commercial name                          : Dolby Digital Plus
  36. Codec ID                                 : A_EAC3
  37. Duration                                 : 1 h 42 min
  38. Bit rate mode                            : Constant
  39. Bit rate                                 : 640 kb/s
  40. Channel(s)                               : 6 channels
  41. Channel layout                           : L R C LFE Ls Rs
  42. Sampling rate                            : 48.0 kHz
  43. Frame rate                               : 31.250 FPS (1536 SPF)
  44. Compression mode                         : Lossy
  45. Stream size                              : 469 MiB (7%)
  46. Language                                 : English
  47. Service kind                             : Complete Main
  48. Default                                  : Yes
  49. Forced                                   : No
  50. Text #1
  51. ID                                       : 3
  52. Format                                   : UTF-8
  53. Codec ID                                 : S_TEXT/UTF8
  54. Codec ID/Info                            : UTF-8 Plain Text
  55. Duration                                 : 1 h 34 min
  56. Bit rate                                 : 58 b/s
  57. Count of elements                        : 1342
  58. Stream size                              : 40.7 KiB (0%)
  59. Language                                 : English
  60. Default                                  : No
  61. Forced                                   : No
  62. Text #2
  63. ID                                       : 4
  64. Format                                   : UTF-8
  65. Codec ID                                 : S_TEXT/UTF8
  66. Codec ID/Info                            : UTF-8 Plain Text
  67. Duration                                 : 1 h 36 min
  68. Bit rate                                 : 61 b/s
  69. Count of elements                        : 1458
  70. Stream size                              : 43.1 KiB (0%)
  71. Title                                    : SDH
  72. Language                                 : English
  73. Default                                  : No
  74. Forced                                   : No
复制代码




                                       
                                       

                                       
                                       
                                       




回复

使用道具 举报

懒得打字嘛,点击右侧快捷回复 【右侧内容,后台自定义】
您需要登录后才可以回帖 登录 | 立即加入

本版积分规则

Archiver|小黑屋| 蓝光电影网 |网站地图

Copyright © 2021 Comsenz Inc. Powered by 蓝光电影网

蓝光电影网

本站内容由用户自主分享和转载自互联网,转载目的在于传递更多信息,并不代表本网赞同其观点和对其真实性负责。

如有侵权、违反国家法律政策行为,请联系我们,我们会第一时间及时清除和处理!

举报反馈邮箱:[email protected]

快速回复 返回顶部 返回列表