找回密码

蓝光电影网

查看: 17|回复: 0

[剧情] 艾娃 Ava.2020.1080p.WEB-DL.DD5.1.H264-FGT 3.31GB

[复制链接]
蓝光币
426
发表于 2021-8-20 00:50:25 | 显示全部楼层 |阅读模式


◎译  名 艾娃/Eve/伊芙/追杀艾娃(台)
◎片  名 Ava
◎年  代 2020
◎产  地 美国
◎类  别 行动 / 惊悚 / 犯罪
◎语  言 英语
◎上映日期 2020-07-02(匈牙利) / 2020-08-25(加拿大收集) / 2020-09-25(美国)
◎IMDb评分  5.7/10 from 903 users
◎IMDb链接  https://www.imdb.com/title/tt8784956/
◎豆瓣评分 /10 from 0 users
◎豆瓣链接 https://movie.douban.com/subject/30289869/
◎片  长 96分钟
◎导  演 泰特·泰勒 Tate Taylor
◎编  剧 马修·纽顿 Matthew Newton
◎主  演 杰西卡·查斯坦 Jessica Chastain
       科林·法瑞尔 Colin Farrell
       约翰·马尔科维奇 John Malkovich
       吉娜·戴维斯 Geena Davis
       陈冲 Joan Chen
       戴安娜·西尔弗斯 Diana Silvers
       科曼 Common
       艾恩·格拉法德 Ioan Gruffudd
       杰丝·威克斯勒 Jess Weixler
       埃夫卡·科瓦拉西尤斯 Efka Kvaraciejus
       安妮·比萨比亚 Annie Pisapia
       克里斯托弗·J·多米格 Christopher J. Domig
◎标  签 行动 | 杰西卡·查斯坦 | 美国 | 美国电影 | 2020 | 电影 | Jessica·Chastain | 剧情
◎简  介


  顶尖杀手艾娃效忠于一个神祕构造,在全球各地履行高代价方针的暗杀行动。但是,一次出了过失的行动,让艾娃身陷生死危机。面临各路杀手遮天蔽日的追杀,无路可退的艾娃惟有杀出血路,才有活下去的机遇…
  1. Video
  2. ID                                       : 1
  3. Format                                   : AVC
  4. Format/Info                              : Advanced Video Codec
  5. Format profile                           : [email protected]
  6. Format settings                          : CABAC / 5 Ref Frames
  7. Format settings, CABAC                   : Yes
  8. Format settings, Reference frames        : 5 frames
  9. Codec ID                                 : V_MPEG4/ISO/AVC
  10. Duration                                 : 1 h 37 min
  11. Bit rate                                 : 4 495 kb/s
  12. Width                                    : 1 920 pixels
  13. Height                                   : 804 pixels
  14. Display aspect ratio                     : 2.40:1
  15. Frame rate mode                          : Constant
  16. Frame rate                               : 23.976 FPS
  17. Color space                              : YUV
  18. Chroma subsampling                       : 4:2:0
  19. Bit depth                                : 8 bits
  20. Scan type                                : Progressive
  21. Bits/(Pixel*Frame)                       : 0.121
  22. Stream size                              : 3.05 GiB (92%)
  23. Title                                    : Ava.2020.1080p.WEB-DL.DD5.1.H264-FGT
  24. Language                                 : English
  25. Default                                  : Yes
  26. Forced                                   : No
  27. Color range                              : Limited
  28. Color primaries                          : BT.709
  29. Transfer characteristics                 : BT.709
  30. Matrix coefficients                      : BT.709
  31. Audio
  32. ID                                       : 2
  33. Format                                   : AC-3
  34. Format/Info                              : Audio Coding 3
  35. Commercial name                          : Dolby Digital
  36. Codec ID                                 : A_AC3
  37. Duration                                 : 1 h 37 min
  38. Bit rate mode                            : Constant
  39. Bit rate                                 : 384 kb/s
  40. Channel(s)                               : 6 channels
  41. Channel layout                           : L R C LFE Ls Rs
  42. Sampling rate                            : 48.0 kHz
  43. Frame rate                               : 31.250 FPS (1536 SPF)
  44. Compression mode                         : Lossy
  45. Stream size                              : 267 MiB (8%)
  46. Title                                    : Ava.2020.1080p.WEB-DL.DD5.1.H264-FGT
  47. Language                                 : English
  48. Service kind                             : Complete Main
  49. Default                                  : Yes
  50. Forced                                   : No
  51. Text #1
  52. ID                                       : 3
  53. Format                                   : UTF-8
  54. Codec ID                                 : S_TEXT/UTF8
  55. Codec ID/Info                            : UTF-8 Plain Text
  56. Duration                                 : 23 min 15 s
  57. Bit rate                                 : 2 b/s
  58. Count of elements                        : 18
  59. Stream size                              : 458 Bytes (0%)
  60. Title                                    : FORCED
  61. Language                                 : English
  62. Default                                  : Yes
  63. Forced                                   : No
  64. Text #2
  65. ID                                       : 4
  66. Format                                   : UTF-8
  67. Codec ID                                 : S_TEXT/UTF8
  68. Codec ID/Info                            : UTF-8 Plain Text
  69. Duration                                 : 1 h 31 min
  70. Bit rate                                 : 45 b/s
  71. Count of elements                        : 1131
  72. Stream size                              : 30.4 KiB (0%)
  73. Language                                 : English
  74. Default                                  : No
  75. Forced                                   : No
  76. Menu
  77. 00:00:00.000                             : en:Chapter 01
  78. 00:11:24.851                             : en:Chapter 02
  79. 00:20:49.874                             : en:Chapter 03
  80. 00:35:00.599                             : en:Chapter 04
  81. 00:42:01.477                             : en:Chapter 05
  82. 00:51:10.274                             : en:Chapter 06
  83. 00:58:45.520                             : en:Chapter 07
  84. 01:10:52.455                             : en:Chapter 08
  85. 01:18:43.967                             : en:Chapter 09
  86. 01:32:48.227                             : en:Chapter 10
复制代码






                                       
                                       

                                       
                                       
                                       




回复

使用道具 举报

懒得打字嘛,点击右侧快捷回复 【右侧内容,后台自定义】
您需要登录后才可以回帖 登录 | 立即加入

本版积分规则

Archiver|小黑屋| 蓝光电影网 |网站地图

Copyright © 2021 Comsenz Inc. Powered by 蓝光电影网

蓝光电影网

本站内容由用户自主分享和转载自互联网,转载目的在于传递更多信息,并不代表本网赞同其观点和对其真实性负责。

如有侵权、违反国家法律政策行为,请联系我们,我们会第一时间及时清除和处理!

举报反馈邮箱:[email protected]

快速回复 返回顶部 返回列表