找回密码

蓝光电影网

查看: 28|回复: 0

[剧情] 苍白之门/苍白的门 The.Pale.Door.2020.1080p.WEB-DL.DD5.1.H264-FGT 3.47GB

[复制链接]
蓝光币
382
发表于 2021-8-20 00:50:30 | 显示全部楼层 |阅读模式


◎译  名 苍白之门/苍白的门
◎片  名 The Pale Door
◎年  代 2020
◎产  地 美国
◎类  别 可骇 / 西部
◎语  言 英语
◎上映日期 2020-08-21(美国)
◎IMDb链接  https://www.imdb.com/title/tt9178402/
◎豆瓣评分 /10 from 0 users
◎豆瓣链接 https://movie.douban.com/subject/34445466/
◎导  演 阿伦·库恩兹 Aaron Koontz
◎编  剧 阿伦·库恩兹 Aaron Koontz
◎主  演 梅洛拉·沃尔特斯 Melora Walters
       扎克里·奈顿 Zachary Knighton
       斯坦·肖 Stan Shaw
       比尔·萨奇 Bill Sage
       戴文·德鲁伊 Devin Druid
       诺阿·西甘 Noah Segan
       娜塔莎·巴塞特 Natasha Bassett
       帕特·希利 Pat Healy
       蒂娜·帕克 Tina Parker
       亚历山德拉·哈里斯 Alexandra Harris
       乔尼·马尔斯 Jonny Mars
       达里尔·考克斯 Darryl Cox
       Danielle Evon Ploeger
       霍尔特·鲍格斯 Holt Boggs
       Jeremy King
       格雷格·威廉姆斯 Greg Williams
       杰瑞米·金 Jeremy King
◎标  签 可骇 | 美国 | 西部 | 惊悚 | 2020 | 美国电影
◎简  介


  火车劫案南下后,道尔顿帮派在一个看似无人居住的鬼城找到了居处。为受伤的带领人追求帮助,他们惊奇地偶然发现了小镇广场上一个受接待的妓院。可是,向她们请安的美男现实上是巫婆之所,对毫无戒心的违法者有很是邪恶的计划
  1. Video
  2. ID                                       : 1
  3. Format                                   : AVC
  4. Format/Info                              : Advanced Video Codec
  5. Format profile                           : [email protected]
  6. Format settings                          : CABAC / 4 Ref Frames
  7. Format settings, CABAC                   : Yes
  8. Format settings, Reference frames        : 4 frames
  9. Codec ID                                 : V_MPEG4/ISO/AVC
  10. Duration                                 : 1 h 36 min
  11. Bit rate                                 : 4 768 kb/s
  12. Width                                    : 1 920 pixels
  13. Height                                   : 956 pixels
  14. Display aspect ratio                     : 2.008
  15. Frame rate mode                          : Constant
  16. Frame rate                               : 23.976 (24000/1001/189150) FPS
  17. Color space                              : YUV
  18. Chroma subsampling                       : 4:2:0
  19. Bit depth                                : 8 bits
  20. Scan type                                : Progressive
  21. Bits/(Pixel*Frame)                       : 0.108
  22. Stream size                              : 3.21 GiB (93%)
  23. Title                                    : The.Pale.Door.2020.1080p.WEB-DL.DD5.1.H264-FGT
  24. Language                                 : English
  25. Default                                  : Yes
  26. Forced                                   : No
  27. Color range                              : Limited
  28. Color primaries                          : BT.709
  29. Transfer characteristics                 : BT.709
  30. Matrix coefficients                      : BT.709
  31. Audio
  32. ID                                       : 2
  33. Format                                   : AC-3
  34. Format/Info                              : Audio Coding 3
  35. Commercial name                          : Dolby Digital
  36. Codec ID                                 : A_AC3
  37. Duration                                 : 1 h 36 min
  38. Bit rate mode                            : Constant
  39. Bit rate                                 : 384 kb/s
  40. Channel(s)                               : 6 channels
  41. Channel layout                           : L R C LFE Ls Rs
  42. Sampling rate                            : 48.0 kHz
  43. Frame rate                               : 31.250 FPS (1536 SPF)
  44. Compression mode                         : Lossy
  45. Stream size                              : 265 MiB (7%)
  46. Title                                    : The.Pale.Door.2020.1080p.WEB-DL.DD5.1.H264-FGT
  47. Language                                 : English
  48. Service kind                             : Complete Main
  49. Default                                  : Yes
  50. Forced                                   : No
  51. Text
  52. ID                                       : 3
  53. Format                                   : UTF-8
  54. Codec ID                                 : S_TEXT/UTF8
  55. Codec ID/Info                            : UTF-8 Plain Text
  56. Duration                                 : 1 h 27 min
  57. Bit rate                                 : 39 b/s
  58. Count of elements                        : 995
  59. Stream size                              : 25.3 KiB (0%)
  60. Language                                 : English
  61. Default                                  : Yes
  62. Forced                                   : No
  63. Menu
  64. 00:00:00.000                             : en:1
  65. 00:09:03.209                             : en:2
  66. 00:19:00.014                             : en:3
  67. 00:29:44.742                             : en:4
  68. 00:40:05.863                             : en:5
  69. 00:50:10.092                             : en:6
  70. 01:00:17.616                             : en:7
  71. 01:09:46.768                             : en:8
  72. 01:16:38.137                             : en:9
  73. 01:32:22.039                             : en:10
复制代码






                                       
                                       

                                       
                                       
                                       




回复

使用道具 举报

懒得打字嘛,点击右侧快捷回复 【右侧内容,后台自定义】
您需要登录后才可以回帖 登录 | 立即加入

本版积分规则

Archiver|小黑屋| 蓝光电影网 |网站地图

Copyright © 2021 Comsenz Inc. Powered by 蓝光电影网

蓝光电影网

本站内容由用户自主分享和转载自互联网,转载目的在于传递更多信息,并不代表本网赞同其观点和对其真实性负责。

如有侵权、违反国家法律政策行为,请联系我们,我们会第一时间及时清除和处理!

举报反馈邮箱:[email protected]

快速回复 返回顶部 返回列表