找回密码

蓝光电影网

查看: 12|回复: 0

[剧情] 24营/24兵团之黑白大战 The.24th.2020.1080p.WEB-DL.DD5.1.H264-FGT 3.90GB

[复制链接]
蓝光币
382
发表于 2021-8-20 00:50:39 | 显示全部楼层 |阅读模式


◎译  名 24营/24兵团之黑白大战
◎片  名 The 24th
◎年  代 2020
◎产  地 美国
◎类  别 剧情 / 历史
◎上映日期 
◎IMDb链接  https://www.imdb.com/title/tt10452854/
◎豆瓣评分 /10 from 0 users
◎豆瓣链接 https://movie.douban.com/subject/34967941/
◎片  长 101分钟
◎导  演 凯文·威尔默特 Kevin Willmott
◎编  剧 凯文·威尔默特 Kevin Willmott / 泰·比尔斯 Trai Byers
◎主  演 泰·比尔斯 Trai Byers
       巴希尔·萨拉赫丁 Bashir Salahuddin
       阿雅·娜奥米·金 Aja Naomi King
       莫·麦克雷 Mo McRae
       麦凯尔泰·威廉逊 Mykelti Williamson
       托马斯·哈登·丘奇 Thomas Haden Church
       库利·卡尔文 Cuyle Carvin
       吉姆·克洛克 Jim Klock
       约瑟夫·李·安德森 Joseph Lee Anderson
       德里克·罗素 Derek Russo
       迈克尔·罗斯 Michael Rose
       布鲁斯·麦金农 Bruce McKinnon
       马特·伯克 Matt Burke
       罗达·格里菲丝 Rhoda Griffis
       肖恩·迈克尔·韦伯 Sean Michael Weber
       米凯·霍姆斯 Myke Holmes
       布伦特·莫雷尔·加斯金斯 Brent Moorer Gaskins
       Lorenzo Yearby
       Donald Norris Jr.
◎标  签 美国 | RACE | 2020
◎简  介


  The 24th is based on the true story of the all-black Twenty-Fourth United States Infantry and the Houston Riot of 1917. The night of violence led to the largest murder trial in American History.
  1. Video
  2. ID                                       : 1
  3. Format                                   : AVC
  4. Format/Info                              : Advanced Video Codec
  5. Format profile                           : [email protected]
  6. Format settings                          : CABAC / 5 Ref Frames
  7. Format settings, CABAC                   : Yes
  8. Format settings, Reference frames        : 5 frames
  9. Codec ID                                 : V_MPEG4/ISO/AVC
  10. Duration                                 : 1 h 53 min
  11. Bit rate                                 : 4 547 kb/s
  12. Width                                    : 1 912 pixels
  13. Height                                   : 788 pixels
  14. Display aspect ratio                     : 2.40:1
  15. Frame rate mode                          : Constant
  16. Frame rate                               : 23.976 (24000/1001/189150) FPS
  17. Color space                              : YUV
  18. Chroma subsampling                       : 4:2:0
  19. Bit depth                                : 8 bits
  20. Scan type                                : Progressive
  21. Bits/(Pixel*Frame)                       : 0.126
  22. Stream size                              : 3.60 GiB (92%)
  23. Title                                    : The.24th.2020.1080p.WEB-DL.DD5.1.H264-FGT
  24. Language                                 : English
  25. Default                                  : Yes
  26. Forced                                   : No
  27. Color range                              : Limited
  28. Color primaries                          : BT.709
  29. Transfer characteristics                 : BT.709
  30. Matrix coefficients                      : BT.709
  31. Audio
  32. ID                                       : 2
  33. Format                                   : AC-3
  34. Format/Info                              : Audio Coding 3
  35. Commercial name                          : Dolby Digital
  36. Codec ID                                 : A_AC3
  37. Duration                                 : 1 h 53 min
  38. Bit rate mode                            : Constant
  39. Bit rate                                 : 384 kb/s
  40. Channel(s)                               : 6 channels
  41. Channel layout                           : L R C LFE Ls Rs
  42. Sampling rate                            : 48.0 kHz
  43. Frame rate                               : 31.250 FPS (1536 SPF)
  44. Compression mode                         : Lossy
  45. Stream size                              : 311 MiB (8%)
  46. Title                                    : The.24th.2020.1080p.WEB-DL.DD5.1.H264-FGT
  47. Language                                 : English
  48. Service kind                             : Complete Main
  49. Default                                  : Yes
  50. Forced                                   : No
  51. Text
  52. ID                                       : 3
  53. Format                                   : UTF-8
  54. Codec ID                                 : S_TEXT/UTF8
  55. Codec ID/Info                            : UTF-8 Plain Text
  56. Duration                                 : 1 h 45 min
  57. Bit rate                                 : 49 b/s
  58. Count of elements                        : 1350
  59. Stream size                              : 38.3 KiB (0%)
  60. Language                                 : English
  61. Default                                  : Yes
  62. Forced                                   : No
  63. Menu
  64. 00:00:00.000                             : en:1
  65. 00:01:39.000                             : en:2
  66. 00:12:09.000                             : en:3
  67. 00:22:08.000                             : en:4
  68. 00:32:20.000                             : en:5
  69. 00:41:15.000                             : en:6
  70. 00:52:00.000                             : en:7
  71. 01:01:06.000                             : en:8
  72. 01:11:36.000                             : en:9
  73. 01:21:55.000                             : en:10
  74. 01:28:07.000                             : en:11
  75. 01:35:26.000                             : en:12
  76. 01:47:01.000                             : en:13
复制代码






                                       
                                       

                                       
                                       
                                       




回复

使用道具 举报

懒得打字嘛,点击右侧快捷回复 【右侧内容,后台自定义】
您需要登录后才可以回帖 登录 | 立即加入

本版积分规则

Archiver|小黑屋| 蓝光电影网 |网站地图

Copyright © 2021 Comsenz Inc. Powered by 蓝光电影网

蓝光电影网

本站内容由用户自主分享和转载自互联网,转载目的在于传递更多信息,并不代表本网赞同其观点和对其真实性负责。

如有侵权、违反国家法律政策行为,请联系我们,我们会第一时间及时清除和处理!

举报反馈邮箱:[email protected]

快速回复 返回顶部 返回列表