找回密码

蓝光电影网

查看: 9|回复: 0

[剧情] 完美接球 The.Perfect.Catch.2017.1080p.AMZN.WEBRip.DDP5.1.x264-pawel2006 5.66GB

[复制链接]
蓝光币
426
发表于 2021-8-20 00:51:26 | 显示全部楼层 |阅读模式


◎译  名 完善接球
◎片  名 The Perfect Catch
◎年  代 2017
◎产  地 美国
◎类  别 剧情 / 恋爱 / 家庭
◎上映日期 2017-04-22(美国)
◎IMDb评分  6.6/10 from 1399 users
◎IMDb链接  https://www.imdb.com/title/tt6782486/
◎豆瓣评分 /10 from 0 users
◎豆瓣链接 https://movie.douban.com/subject/27073223/
◎片  长 93分钟
◎导  演 史蒂文·R·蒙若尔 Steven R. Monroe
◎主  演 妮基·迪洛许 Nikki Deloach
       安德鲁·W·沃克 Andrew W. Walker
◎标  签 恋爱 | 美国 | 家庭 | 笑剧 | 2017 | romantic | comedy | Hallmark
◎简  介


  委曲支持着家属小餐厅买卖的单亲妈妈Jessica在故乡与高中初恋男友、现在遭受职业生活低潮的棒球明星Chase重逢。Jessica的餐厅能改变乾坤吗?她能和Chase旧情复燃吗?
  1. Video
  2. ID                                       : 1
  3. Format                                   : AVC
  4. Format/Info                              : Advanced Video Codec
  5. Format profile                           : [email protected]
  6. Format settings                          : CABAC / 4 Ref Frames
  7. Format settings, CABAC                   : Yes
  8. Format settings, Reference frames        : 4 frames
  9. Codec ID                                 : V_MPEG4/ISO/AVC
  10. Duration                                 : 1 h 28 min
  11. Bit rate mode                            : Constant
  12. Bit rate                                 : 8 557 kb/s
  13. Nominal bit rate                         : 10 000 kb/s
  14. Width                                    : 1 920 pixels
  15. Height                                   : 1 080 pixels
  16. Display aspect ratio                     : 16:9
  17. Frame rate mode                          : Constant
  18. Frame rate                               : 23.976 (24000/1001/189150) FPS
  19. Color space                              : YUV
  20. Chroma subsampling                       : 4:2:0
  21. Bit depth                                : 8 bits
  22. Scan type                                : Progressive
  23. Bits/(Pixel*Frame)                       : 0.172
  24. Stream size                              : 5.26 GiB (93%)
  25. Default                                  : Yes
  26. Forced                                   : No
  27. Color range                              : Limited
  28. Color primaries                          : BT.709
  29. Transfer characteristics                 : BT.709
  30. Matrix coefficients                      : BT.709
  31. Audio
  32. ID                                       : 2
  33. Format                                   : E-AC-3
  34. Format/Info                              : Enhanced AC-3
  35. Commercial name                          : Dolby Digital Plus
  36. Codec ID                                 : A_EAC3
  37. Duration                                 : 1 h 28 min
  38. Bit rate mode                            : Constant
  39. Bit rate                                 : 640 kb/s
  40. Channel(s)                               : 6 channels
  41. Channel layout                           : L R C LFE Ls Rs
  42. Sampling rate                            : 48.0 kHz
  43. Frame rate                               : 31.250 FPS (1536 SPF)
  44. Compression mode                         : Lossy
  45. Stream size                              : 403 MiB (7%)
  46. Title                                    : English
  47. Language                                 : English
  48. Service kind                             : Complete Main
  49. Default                                  : No
  50. Forced                                   : No
  51. Text
  52. ID                                       : 3
  53. Format                                   : UTF-8
  54. Codec ID                                 : S_TEXT/UTF8
  55. Codec ID/Info                            : UTF-8 Plain Text
  56. Duration                                 : 1 h 25 min
  57. Bit rate                                 : 79 b/s
  58. Count of elements                        : 2063
  59. Stream size                              : 50.1 KiB (0%)
  60. Title                                    : English [CC][SDH]
  61. Language                                 : English
  62. Default                                  : No
  63. Forced                                   : No
复制代码






                                       
                                       

                                       
                                       
                                       




回复

使用道具 举报

懒得打字嘛,点击右侧快捷回复 【右侧内容,后台自定义】
您需要登录后才可以回帖 登录 | 立即加入

本版积分规则

Archiver|小黑屋| 蓝光电影网 |网站地图

Copyright © 2021 Comsenz Inc. Powered by 蓝光电影网

蓝光电影网

本站内容由用户自主分享和转载自互联网,转载目的在于传递更多信息,并不代表本网赞同其观点和对其真实性负责。

如有侵权、违反国家法律政策行为,请联系我们,我们会第一时间及时清除和处理!

举报反馈邮箱:[email protected]

快速回复 返回顶部 返回列表