找回密码

蓝光电影网

查看: 18|回复: 0

[剧情] 托马索 Tommaso.2019.1080p.WEB-DL.DD5.1.H264-FGT 4.08GB

[复制链接]
蓝光币
382
发表于 2021-8-20 00:51:36 | 显示全部楼层 |阅读模式


◎译  名 托马索
◎片  名 Tommaso
◎年  代 2019
◎产  地 意大利 / 英国 / 美国 / 希腊
◎类  别 剧情
◎语  言 英语 / 意大利语 / 俄语
◎上映日期 2019-05-20(戛纳电影节) / 2020-06-05(美国)
◎IMDb评分  6.1/10 from 371 users
◎IMDb链接  https://www.imdb.com/title/tt9482230
◎豆瓣评分 0/10 from 0 users
◎豆瓣链接 https://movie.douban.com/subject/33402218/
◎片  长 115分钟
◎导  演 阿贝尔·费拉拉 Abel Ferrara
◎编  剧 阿贝尔·费拉拉 Abel Ferrara
◎主  演 Cristina Chiriac
       威廉·达福 Willem Dafoe
       Anna Ferrara
       Stella Mastrantonio
       Lorenzo Piazzoni
       Alessandro Prato
       Alessandra Scarci

◎标  签 意大利 | 2019 | 阿贝尔·费拉拉 | 威廉·达福 | 戛纳电影节 | 剧情 | AbelFerrara | 【出格展映·SéancesSpéciales】
◎简  介

  
  影片由阿贝尔·费拉拉自编自导,该片曾入围2019年戛纳电影节参展作品
  1. Video
  2. ID                                       : 1
  3. Format                                   : AVC
  4. Format/Info                              : Advanced Video Codec
  5. Format profile                           : [email protected]
  6. Format settings                          : CABAC / 5 Ref Frames
  7. Format settings, CABAC                   : Yes
  8. Format settings, Reference frames        : 5 frames
  9. Codec ID                                 : V_MPEG4/ISO/AVC
  10. Duration                                 : 1 h 57 min
  11. Bit rate                                 : 4 578 kb/s
  12. Width                                    : 1 920 pixels
  13. Height                                   : 804 pixels
  14. Display aspect ratio                     : 2.40:1
  15. Frame rate mode                          : Constant
  16. Frame rate                               : 24.000 FPS
  17. Color space                              : YUV
  18. Chroma subsampling                       : 4:2:0
  19. Bit depth                                : 8 bits
  20. Scan type                                : Progressive
  21. Bits/(Pixel*Frame)                       : 0.124
  22. Stream size                              : 3.77 GiB (92%)
  23. Title                                    : Tommaso.2019.1080p.WEB-DL.DD5.1.H264-FGT
  24. Language                                 : English
  25. Default                                  : Yes
  26. Forced                                   : No
  27. Color range                              : Limited
  28. Color primaries                          : BT.709
  29. Transfer characteristics                 : BT.709
  30. Matrix coefficients                      : BT.709
  31. Audio
  32. ID                                       : 2
  33. Format                                   : AC-3
  34. Format/Info                              : Audio Coding 3
  35. Commercial name                          : Dolby Digital
  36. Codec ID                                 : A_AC3
  37. Duration                                 : 1 h 57 min
  38. Bit rate mode                            : Constant
  39. Bit rate                                 : 384 kb/s
  40. Channel(s)                               : 6 channels
  41. Channel layout                           : L R C LFE Ls Rs
  42. Sampling rate                            : 48.0 kHz
  43. Frame rate                               : 31.250 FPS (1536 SPF)
  44. Compression mode                         : Lossy
  45. Stream size                              : 323 MiB (8%)
  46. Title                                    : Tommaso.2019.1080p.WEB-DL.DD5.1.H264-FGT
  47. Language                                 : English
  48. Service kind                             : Complete Main
  49. Default                                  : Yes
  50. Forced                                   : No
  51. Text
  52. ID                                       : 3
  53. Format                                   : UTF-8
  54. Codec ID                                 : S_TEXT/UTF8
  55. Codec ID/Info                            : UTF-8 Plain Text
  56. Duration                                 : 1 h 51 min
  57. Bit rate                                 : 40 b/s
  58. Count of elements                        : 1048
  59. Stream size                              : 33.2 KiB (0%)
  60. Language                                 : English
  61. Default                                  : Yes
  62. Forced                                   : No
  63. Menu
  64. 00:00:00.000                             : en:Kapitel 1
  65. 00:11:38.833                             : en:Kapitel 2
  66. 00:18:59.958                             : en:Kapitel 3
  67. 00:27:15.248                             : en:Kapitel 4
  68. 00:36:16.497                             : en:Kapitel 5
  69. 00:46:34.997                             : en:Kapitel 6
  70. 00:54:18.997                             : en:Kapitel 7
  71. 01:03:42.705                             : en:Kapitel 8
  72. 01:13:43.995                             : en:Kapitel 9
  73. 01:24:09.786                             : en:Kapitel 10
  74. 01:32:45.202                             : en:Kapitel 11
  75. 01:39:40.327                             : en:Kapitel 12
复制代码






                                       
                                       

                                       
                                       
                                       




回复

使用道具 举报

懒得打字嘛,点击右侧快捷回复 【右侧内容,后台自定义】
您需要登录后才可以回帖 登录 | 立即加入

本版积分规则

Archiver|小黑屋| 蓝光电影网 |网站地图

Copyright © 2021 Comsenz Inc. Powered by 蓝光电影网

蓝光电影网

本站内容由用户自主分享和转载自互联网,转载目的在于传递更多信息,并不代表本网赞同其观点和对其真实性负责。

如有侵权、违反国家法律政策行为,请联系我们,我们会第一时间及时清除和处理!

举报反馈邮箱:[email protected]

快速回复 返回顶部 返回列表