找回密码

蓝光电影网

查看: 25|回复: 0

[剧情] 穿越时空的情歌 In.the.Life.of.Music.2018.1080p.WEB-DL.DD5.1.H264-FGT 3.27GB

[复制链接]
蓝光币
382
发表于 2021-8-20 00:51:41 | 显示全部楼层 |阅读模式


◎译  名 穿越时空的情歌 / In the Life of Music
◎片  名 ????????????
◎年  代 2018
◎产  地 美国 / 柬埔寨
◎类  别 剧情 / 恋爱 / 音乐 / 历史 / 战争
◎语  言 高棉语 / 英语
◎上映日期 2018-05-08(洛杉矶亚承平洋电影节) / 2019-03-21(柬埔寨)
◎IMDb评分  6.7/10 from 57 users
◎IMDb链接  https://www.imdb.com/title/tt5496628
◎豆瓣评分 0/10 from 0 users
◎豆瓣链接 https://movie.douban.com/subject/27145184/
◎片  长 90分钟
◎主  演 艾伦·王 Ellen Wong

◎标  签 剧情 | 历史 | 恋爱 | 战争 | 音乐
◎简  介

  
  一首在1960年月举国风行的情歌?如丝线般缠绕在柬埔寨人的心中?勾画出时代动乱下?小人物的情爱?失望与更生?一首歌串起三个分歧期间的故事?并显现了柬埔寨在红色高棉统治前后的样貌?音乐作为群众与地盘的灵魂?即使历经贫瘠与不胜?毕竟等到了希望盛开?
  1. Video
  2. ID                                       : 1
  3. Format                                   : AVC
  4. Format/Info                              : Advanced Video Codec
  5. Format profile                           : [email protected]
  6. Format settings                          : CABAC / 4 Ref Frames
  7. Format settings, CABAC                   : Yes
  8. Format settings, Reference frames        : 4 frames
  9. Codec ID                                 : V_MPEG4/ISO/AVC
  10. Duration                                 : 1 h 31 min
  11. Bit rate                                 : 4 758 kb/s
  12. Width                                    : 1 908 pixels
  13. Height                                   : 1 024 pixels
  14. Display aspect ratio                     : 1.85:1
  15. Frame rate mode                          : Constant
  16. Frame rate                               : 23.976 (24000/1001/189150) FPS
  17. Color space                              : YUV
  18. Chroma subsampling                       : 4:2:0
  19. Bit depth                                : 8 bits
  20. Scan type                                : Progressive
  21. Bits/(Pixel*Frame)                       : 0.102
  22. Stream size                              : 3.02 GiB (92%)
  23. Title                                    : In.the.Life.of.Music.2018.1080p.WEB-DL.DD5.1.H264-FGT
  24. Language                                 : English
  25. Default                                  : Yes
  26. Forced                                   : No
  27. Color range                              : Limited
  28. Color primaries                          : BT.709
  29. Transfer characteristics                 : BT.709
  30. Matrix coefficients                      : BT.709
  31. Audio
  32. ID                                       : 2
  33. Format                                   : AC-3
  34. Format/Info                              : Audio Coding 3
  35. Commercial name                          : Dolby Digital
  36. Codec ID                                 : A_AC3
  37. Duration                                 : 1 h 31 min
  38. Bit rate mode                            : Constant
  39. Bit rate                                 : 384 kb/s
  40. Channel(s)                               : 6 channels
  41. Channel layout                           : L R C LFE Ls Rs
  42. Sampling rate                            : 48.0 kHz
  43. Frame rate                               : 31.250 FPS (1536 SPF)
  44. Compression mode                         : Lossy
  45. Stream size                              : 250 MiB (7%)
  46. Title                                    : In.the.Life.of.Music.2018.1080p.WEB-DL.DD5.1.H264-FGT
  47. Language                                 : English
  48. Service kind                             : Complete Main
  49. Default                                  : Yes
  50. Forced                                   : No
  51. Text
  52. ID                                       : 3
  53. Format                                   : UTF-8
  54. Codec ID                                 : S_TEXT/UTF8
  55. Codec ID/Info                            : UTF-8 Plain Text
  56. Duration                                 : 1 h 21 min
  57. Bit rate                                 : 2 b/s
  58. Count of elements                        : 82
  59. Stream size                              : 1.33 KiB (0%)
  60. Language                                 : English
  61. Default                                  : Yes
  62. Forced                                   : No
  63. Menu
  64. 00:00:00.000                             : en:1
  65. 00:05:47.000                             : en:2
  66. 00:14:56.000                             : en:3
  67. 00:24:12.000                             : en:4
  68. 00:36:02.000                             : en:5
  69. 00:46:50.000                             : en:6
  70. 00:54:15.000                             : en:7
  71. 01:04:42.000                             : en:8
  72. 01:13:25.000                             : en:9
  73. 01:26:21.000                             : en:10
复制代码






                                       
                                       

                                       
                                       
                                       




回复

使用道具 举报

懒得打字嘛,点击右侧快捷回复 【右侧内容,后台自定义】
您需要登录后才可以回帖 登录 | 立即加入

本版积分规则

Archiver|小黑屋| 蓝光电影网 |网站地图

Copyright © 2021 Comsenz Inc. Powered by 蓝光电影网

蓝光电影网

本站内容由用户自主分享和转载自互联网,转载目的在于传递更多信息,并不代表本网赞同其观点和对其真实性负责。

如有侵权、违反国家法律政策行为,请联系我们,我们会第一时间及时清除和处理!

举报反馈邮箱:[email protected]

快速回复 返回顶部 返回列表