找回密码

蓝光电影网

查看: 8|回复: 0

[剧情] 赌命狂花/不死情劫 Guncrazy.1992.1080p.AMZN.WEBRip.DDP2.0.x264-NDy 7.13GB

[复制链接]
蓝光币
382
发表于 2021-8-20 00:51:49 | 显示全部楼层 |阅读模式


◎译  名 赌命狂花 / 不死情劫
◎片  名 Guncrazy
◎年  代 1992
◎产  地 美国
◎类  别 剧情 / 恋爱 / 惊悚 / 犯罪
◎语  言 英语
◎上映日期 1992-09-11
◎IMDb评分  5.5/10 from 2071 users
◎IMDb链接  https://www.imdb.com/title/tt0104377
◎豆瓣评分 6.6/10 from 198 users
◎豆瓣链接 https://movie.douban.com/subject/1295864/
◎片  长 97 分钟
◎导  演 Tamra Davis
◎编  剧 Matthew Bright
◎主  演 Drew Barrymore
       Robert Greenberg
       Rodney Harvey
       Jeremy Davies
       James LeGros

◎标  签 美国 | 犯罪 | 恋爱 | 美国电影 | Drew·Barrymore | 剧情 | Drew.Barrymore | 欧美
◎简  介

  
  这是部新新人类的电影,男女配角加起来四十岁,就面临丑陋天下的黑暗面。他们迷恋枪的气力与能力,但碰到题目却没法面临与处理,只要自觉标扑灭自己与他人。全片的丢失看过让人低荡不已。
  1. Video
  2. ID                                       : 1
  3. Format                                   : AVC
  4. Format/Info                              : Advanced Video Codec
  5. Format profile                           : [email protected]
  6. Format settings                          : CABAC / 4 Ref Frames
  7. Format settings, CABAC                   : Yes
  8. Format settings, Reference frames        : 4 frames
  9. Codec ID                                 : V_MPEG4/ISO/AVC
  10. Duration                                 : 1 h 36 min
  11. Bit rate                                 : 10.4 Mb/s
  12. Width                                    : 1 920 pixels
  13. Height                                   : 1 080 pixels
  14. Display aspect ratio                     : 16:9
  15. Frame rate mode                          : Constant
  16. Frame rate                               : 23.976 (24000/1001/189150) FPS
  17. Color space                              : YUV
  18. Chroma subsampling                       : 4:2:0
  19. Bit depth                                : 8 bits
  20. Scan type                                : Progressive
  21. Bits/(Pixel*Frame)                       : 0.208
  22. Stream size                              : 6.98 GiB (98%)
  23. Default                                  : Yes
  24. Forced                                   : No
  25. Color range                              : Limited
  26. Color primaries                          : BT.709
  27. Transfer characteristics                 : BT.709
  28. Matrix coefficients                      : BT.709
  29. Audio
  30. ID                                       : 2
  31. Format                                   : E-AC-3
  32. Format/Info                              : Enhanced AC-3
  33. Commercial name                          : Dolby Digital Plus
  34. Codec ID                                 : A_EAC3
  35. Duration                                 : 1 h 36 min
  36. Bit rate mode                            : Constant
  37. Bit rate                                 : 224 kb/s
  38. Channel(s)                               : 2 channels
  39. Channel layout                           : L R
  40. Sampling rate                            : 48.0 kHz
  41. Frame rate                               : 31.250 FPS (1536 SPF)
  42. Compression mode                         : Lossy
  43. Stream size                              : 155 MiB (2%)
  44. Language                                 : English
  45. Service kind                             : Complete Main
  46. Default                                  : Yes
  47. Forced                                   : No
  48. Text #1
  49. ID                                       : 3
  50. Format                                   : UTF-8
  51. Codec ID                                 : S_TEXT/UTF8
  52. Codec ID/Info                            : UTF-8 Plain Text
  53. Duration                                 : 1 h 30 min
  54. Bit rate                                 : 53 b/s
  55. Count of elements                        : 1186
  56. Stream size                              : 35.3 KiB (0%)
  57. Title                                    : English
  58. Language                                 : English
  59. Default                                  : Yes
  60. Forced                                   : No
  61. Text #2
  62. ID                                       : 4
  63. Format                                   : UTF-8
  64. Codec ID                                 : S_TEXT/UTF8
  65. Codec ID/Info                            : UTF-8 Plain Text
  66. Duration                                 : 1 h 32 min
  67. Bit rate                                 : 53 b/s
  68. Count of elements                        : 1247
  69. Stream size                              : 36.5 KiB (0%)
  70. Title                                    : English (SDH)
  71. Language                                 : English
  72. Default                                  : No
  73. Forced                                   : No
复制代码





                                       
                                       

                                       
                                       
                                       




回复

使用道具 举报

懒得打字嘛,点击右侧快捷回复 【右侧内容,后台自定义】
您需要登录后才可以回帖 登录 | 立即加入

本版积分规则

Archiver|小黑屋| 蓝光电影网 |网站地图

Copyright © 2021 Comsenz Inc. Powered by 蓝光电影网

蓝光电影网

本站内容由用户自主分享和转载自互联网,转载目的在于传递更多信息,并不代表本网赞同其观点和对其真实性负责。

如有侵权、违反国家法律政策行为,请联系我们,我们会第一时间及时清除和处理!

举报反馈邮箱:[email protected]

快速回复 返回顶部 返回列表