找回密码

蓝光电影网

查看: 15|回复: 0

[剧情] 两个爱人和一只熊/熊语恋人 Two.Lovers.And.A.Bear.2016.1080p.NF.WEBRip.DD5.1.x264-QOQ 2.46GB

[复制链接]
蓝光币
382
发表于 2021-8-20 00:52:18 | 显示全部楼层 |阅读模式


◎译  名 两个爱人和一只熊 / 熊语情人(台)
◎片  名 Two Lovers and a Bear
◎年  代 2016
◎产  地 加拿大
◎类  别 剧情 / 恋爱 / 冒险
◎语  言 英语
◎上映日期 2016-05-18(戛纳电影节) / 2016-10-07(加拿大)
◎IMDb评分  6.1/10 from 1737 users
◎IMDb链接  https://www.imdb.com/title/tt4412528
◎豆瓣评分 6.1/10 from 591 users
◎豆瓣链接 https://movie.douban.com/subject/26315901/
◎片  长 96分钟
◎导  演 基姆·阮 Kim Nguyen
◎编  剧 基姆·阮 Kim Nguyen / 路易斯-弗朗索瓦·格雷尼尔 Louis-Fran?ois Grenier
◎主  演 戴恩·德哈恩 Dane DeHaan
       塔提阿娜·玛斯拉尼 Tatiana Maslany
       高登·平森特 Gordon Pinsent
       约翰·拉尔斯顿 John Ralston
       乔尔·加涅 Joel Gagne
       杰夫瑞·R·史姑娘 Jeffrey R. Smith
       菲尼克斯·威尔逊 Phoenix Wilson
       阿什·卡瑟伍德 Ash Catherwood
       约翰尼·伊萨鲁克 Johnny Issaluk
       伊冯娜·E·戴维森 Yvonne E. Davidson
       约瑟芙·纳科吉 Joseph Nakogee

◎标  签 加拿大 | 恋爱 | 2016 | 剧情 | 北极 | 小众 | 文艺 | 人性
◎简  介

  
  故事发生在北极四周一个前不着村后不着店的小镇,两个年轻人在这里相遇并坠入爱河。
◎获奖情况  
  第69届戛纳电影节(2016)
  导演双周单元(提名) 阮金
  1. Video
  2. ID                                       : 1
  3. Format                                   : AVC
  4. Format/Info                              : Advanced Video Codec
  5. Format profile                           : [email protected]
  6. Format settings                          : CABAC / 3 Ref Frames
  7. Format settings, CABAC                   : Yes
  8. Format settings, Reference frames        : 3 frames
  9. Codec ID                                 : V_MPEG4/ISO/AVC
  10. Duration                                 : 1 h 35 min
  11. Bit rate mode                            : Variable
  12. Bit rate                                 : 3 320 kb/s
  13. Maximum bit rate                         : 4 980 kb/s
  14. Width                                    : 1 920 pixels
  15. Height                                   : 1 080 pixels
  16. Display aspect ratio                     : 16:9
  17. Frame rate mode                          : Constant
  18. Frame rate                               : 23.976 (24000/1001/189150) FPS
  19. Color space                              : YUV
  20. Chroma subsampling                       : 4:2:0
  21. Bit depth                                : 8 bits
  22. Scan type                                : Progressive
  23. Bits/(Pixel*Frame)                       : 0.067
  24. Stream size                              : 2.21 GiB (90%)
  25. Writing library                          : x264 core 118
  26. Encoding settings                        : cabac=1 / ref=3 / deblock=1:0:0 / analyse=0x1:0x111 / me=umh / subme=10 / psy=1 / psy_rd=1.00:0.00 / mixed_ref=1 / me_range=24 / chroma_me=1 / trellis=2 / 8x8dct=0 / cqm=0 / deadzone=21,11 / fast_pskip=1 / chroma_qp_offset=-2 / threads=8 / sliced_threads=0 / nr=0 / decimate=1 / interlaced=0 / bluray_compat=0 / constrained_intra=0 / bframes=2 / b_pyramid=0 / b_adapt=2 / b_bias=0 / direct=3 / weightb=1 / open_gop=0 / weightp=2 / keyint=48 / keyint_min=25 / scenecut=0 / intra_refresh=0 / rc_lookahead=0 / rc=2pass / mbtree=1 / bitrate=3320 / ratetol=1.0 / qcomp=0.50 / qpmin=6 / qpmax=51 / qpstep=4 / cplxblur=20.0 / qblur=0.5 / vbv_maxrate=4980 / vbv_bufsize=6640 / nal_hrd=vbr / ip_ratio=1.40 / aq=1:1.00
  27. Default                                  : Yes
  28. Forced                                   : No
  29. Audio
  30. ID                                       : 2
  31. Format                                   : AC-3
  32. Format/Info                              : Audio Coding 3
  33. Commercial name                          : Dolby Digital
  34. Codec ID                                 : A_AC3
  35. Duration                                 : 1 h 35 min
  36. Bit rate mode                            : Constant
  37. Bit rate                                 : 384 kb/s
  38. Channel(s)                               : 6 channels
  39. Channel layout                           : L R C LFE Ls Rs
  40. Sampling rate                            : 48.0 kHz
  41. Frame rate                               : 31.250 FPS (1536 SPF)
  42. Compression mode                         : Lossy
  43. Stream size                              : 262 MiB (10%)
  44. Language                                 : English
  45. Service kind                             : Complete Main
  46. Default                                  : Yes
  47. Forced                                   : No
  48. Text #1
  49. ID                                       : 3
  50. Format                                   : UTF-8
  51. Codec ID                                 : S_TEXT/UTF8
  52. Codec ID/Info                            : UTF-8 Plain Text
  53. Duration                                 : 18 s 333 ms
  54. Bit rate                                 : 43 b/s
  55. Count of elements                        : 4
  56. Stream size                              : 100 Bytes (0%)
  57. Title                                    : Forced
  58. Language                                 : English
  59. Default                                  : Yes
  60. Forced                                   : Yes
  61. Text #2
  62. ID                                       : 4
  63. Format                                   : UTF-8
  64. Codec ID                                 : S_TEXT/UTF8
  65. Codec ID/Info                            : UTF-8 Plain Text
  66. Duration                                 : 1 h 28 min
  67. Bit rate                                 : 38 b/s
  68. Count of elements                        : 1407
  69. Stream size                              : 25.0 KiB (0%)
  70. Language                                 : English
  71. Default                                  : No
  72. Forced                                   : No
复制代码






                                       
                                       

                                       
                                       
                                       




回复

使用道具 举报

懒得打字嘛,点击右侧快捷回复 【右侧内容,后台自定义】
您需要登录后才可以回帖 登录 | 立即加入

本版积分规则

Archiver|小黑屋| 蓝光电影网 |网站地图

Copyright © 2021 Comsenz Inc. Powered by 蓝光电影网

蓝光电影网

本站内容由用户自主分享和转载自互联网,转载目的在于传递更多信息,并不代表本网赞同其观点和对其真实性负责。

如有侵权、违反国家法律政策行为,请联系我们,我们会第一时间及时清除和处理!

举报反馈邮箱:[email protected]

快速回复 返回顶部 返回列表