找回密码

蓝光电影网

查看: 13|回复: 0

[剧情] 高地公园 Highland.Park.2013.1080p.AMZN.WEBRip.DDP5.1.x264-monkee 6.62GB

[复制链接]
蓝光币
386
发表于 2021-8-20 00:52:23 | 显示全部楼层 |阅读模式


◎译  名 高地公园
◎片  名 Highland Park
◎年  代 2013
◎产  地 美国
◎类  别 剧情 / 笑剧
◎语  言 英语
◎上映日期 
◎IMDb评分  5.5/10 from 398 users
◎IMDb链接  https://www.imdb.com/title/tt1506998/
◎豆瓣评分 /10 from 0 users
◎豆瓣链接 https://movie.douban.com/subject/4023415/
◎主  演 Christina Benjamin
       娜图里·劳顿 Naturi Naughton
       维尔内·沃特森-约翰逊 Vernee Watson-Johnson
       Michael Mili
       Madge Levinson
       Lauren Mae Shafer
       埃里克·拉丁 Eric Ladin
       Danny Ray Cook
       Sean Rogers
       金伯莉·伊丽丝 Kimberly Elise
       鲍勃·冈顿 Bob Gunton
       黛博拉·安沃尔 Deborah Ann Woll
       布莱克·克拉克 Blake Clark
       丹尼·格洛弗 Danny Glover
       米歇尔·佛贝丝 Michelle Forbes
       洛克蒙·邓巴 Rockmond Dunbar
       约翰·卡洛·林奇 John Carroll Lynch
       比利·伯克 Billy Burke
       帕克·波西 Parker Posey
       波·德瑞克 Bo Derek
       Courtney Benjamin
◎标  签 工作 | 美国 | 笑剧 | Eric_Ladin | 黛博拉安沃尔 | 洛克蒙邓巴 | 布莱克克拉克 | 安德鲁梅朗
◎简  介


  Highland Park follows the fortunes of an impoverished city’s high school faculty (Billy Burke, Danny Glover) as budget cuts eliminate most of theirjobs. After decades of an endless downward spiral this close knit groupof friends pools their money and puts their faith in one last luck of the drawfor a record lotto jackpot and a chance to turn their lives around. Emboldened by the possibility of sudden wealth they explore the roots of theircity’s decline, from corruption to the loss of hope and faith in themselves andtheir community. Facing pressure from a ruthlessly ambitious mayor (Parker Posey), against almost insurmountable odds they discover that luck is actually in the eye of the beholder.
  1. Video
  2. ID                                       : 1
  3. Format                                   : AVC
  4. Format/Info                              : Advanced Video Codec
  5. Format profile                           : [email protected]
  6. Format settings                          : CABAC / 4 Ref Frames
  7. Format settings, CABAC                   : Yes
  8. Format settings, Reference frames        : 4 frames
  9. Codec ID                                 : V_MPEG4/ISO/AVC
  10. Duration                                 : 1 h 33 min
  11. Bit rate mode                            : Constant
  12. Bit rate                                 : 9 464 kb/s
  13. Nominal bit rate                         : 10 000 kb/s
  14. Width                                    : 1 920 pixels
  15. Height                                   : 1 040 pixels
  16. Display aspect ratio                     : 1.85:1
  17. Frame rate mode                          : Constant
  18. Frame rate                               : 24.000 FPS
  19. Color space                              : YUV
  20. Chroma subsampling                       : 4:2:0
  21. Bit depth                                : 8 bits
  22. Scan type                                : Progressive
  23. Bits/(Pixel*Frame)                       : 0.197
  24. Stream size                              : 6.20 GiB (94%)
  25. Default                                  : Yes
  26. Forced                                   : No
  27. Color range                              : Limited
  28. Color primaries                          : BT.709
  29. Transfer characteristics                 : BT.709
  30. Matrix coefficients                      : BT.709
  31. Audio
  32. ID                                       : 2
  33. Format                                   : E-AC-3
  34. Format/Info                              : Enhanced AC-3
  35. Commercial name                          : Dolby Digital Plus
  36. Codec ID                                 : A_EAC3
  37. Duration                                 : 1 h 33 min
  38. Bit rate mode                            : Constant
  39. Bit rate                                 : 640 kb/s
  40. Channel(s)                               : 6 channels
  41. Channel layout                           : L R C LFE Ls Rs
  42. Sampling rate                            : 48.0 kHz
  43. Frame rate                               : 31.250 FPS (1536 SPF)
  44. Compression mode                         : Lossy
  45. Stream size                              : 429 MiB (6%)
  46. Language                                 : English
  47. Service kind                             : Complete Main
  48. Default                                  : Yes
  49. Forced                                   : No
  50. Text #1
  51. ID                                       : 3
  52. Format                                   : UTF-8
  53. Codec ID                                 : S_TEXT/UTF8
  54. Codec ID/Info                            : UTF-8 Plain Text
  55. Duration                                 : 1 h 33 min
  56. Bit rate                                 : 79 b/s
  57. Count of elements                        : 1770
  58. Stream size                              : 54.6 KiB (0%)
  59. Language                                 : English
  60. Default                                  : No
  61. Forced                                   : No
  62. Text #2
  63. ID                                       : 4
  64. Format                                   : UTF-8
  65. Codec ID                                 : S_TEXT/UTF8
  66. Codec ID/Info                            : UTF-8 Plain Text
  67. Duration                                 : 1 h 33 min
  68. Bit rate                                 : 83 b/s
  69. Count of elements                        : 1923
  70. Stream size                              : 57.4 KiB (0%)
  71. Title                                    : SDH
  72. Language                                 : English
  73. Default                                  : No
  74. Forced                                   : No
复制代码




                                       
                                       

                                       
                                       
                                       




回复

使用道具 举报

懒得打字嘛,点击右侧快捷回复 【右侧内容,后台自定义】
您需要登录后才可以回帖 登录 | 立即加入

本版积分规则

Archiver|小黑屋| 蓝光电影网 |网站地图

Copyright © 2021 Comsenz Inc. Powered by 蓝光电影网

蓝光电影网

本站内容由用户自主分享和转载自互联网,转载目的在于传递更多信息,并不代表本网赞同其观点和对其真实性负责。

如有侵权、违反国家法律政策行为,请联系我们,我们会第一时间及时清除和处理!

举报反馈邮箱:[email protected]

快速回复 返回顶部 返回列表