找回密码

蓝光电影网

查看: 9|回复: 0

[剧情] 小树的故事/少年小树之歌 The.Education.of.Little.Tree.1997.1080p.WEBRip.x264-RARBG 2.21GB

[复制链接]
蓝光币
426
发表于 2021-8-20 00:52:49 | 显示全部楼层 |阅读模式


◎译  名 小树的故事/少年小树之歌
◎片  名 The Education of Little Tree
◎年  代 1997
◎产  地 加拿大
◎类  别 剧情
◎语  言 英语
◎上映日期 1997-12-25
◎IMDb评分  7.2/10 from 1506 users
◎IMDb链接  https://www.imdb.com/title/tt0119052/
◎豆瓣评分 8.7/10 from 3361 users
◎豆瓣链接 https://movie.douban.com/subject/1305814/
◎片  长 116分钟
◎导  演 理查德·弗雷登伯格 Richard Friedenberg
◎编  剧 小厄尔·哈姆纳 Earl Hamner Jr. / 福里斯特·卡特 Forrest Carter / 理查德·弗雷登伯格 Richard Friedenberg
◎主  演 约瑟夫·阿什顿 Joseph Ashton
       詹姆斯·克伦威尔 James Cromwell
       坦图·卡丁诺 Tantoo Cardinal
       米卡·波瑞姆 Mika Boorem
       格雷厄姆·格林 Graham Greene
       理查德·朱特拉斯 Richard Jutras
       罗布·卡彭特 Rob Carpenter
       莱尼·帕克 Leni Parker
       阿莱恩·古勒姆 Alain Goulem
       Christopher Fennell
       Norris Domingue
       马克·杰弗里·米勒 Mark Jeffrey Miller
       拉里·戴 Larry Day
       丽莎·布朗温·摩尔 Lisa Bronwyn Moore
◎标  签 长大 | 童年 | 儿童 | 加拿大 | 原居民 | 剧情 | 孩子 | 美国电影
◎简  介


  八岁印第安小孩“小树”,在双亲去世后,被送至田纳西州的史莫基山,与祖怙恃同住。小树与住在深山中的祖怙恃展开了一段新生活,他的新生活布满了摸索与冒险,有欢笑有泪水,固然有成功与挫折。同时,小树也熟悉了很多好朋友,包括奥秘的奇拉几族先知——“柳树”约翰。1930年的美国,虽然经济冷落,生活困苦,可是对小树来说,却是最难忘的时光。
  1. Video
  2. ID                                       : 1
  3. Format                                   : AVC
  4. Format/Info                              : Advanced Video Codec
  5. Format profile                           : [email protected]
  6. Format settings                          : CABAC / 4 Ref Frames
  7. Format settings, CABAC                   : Yes
  8. Format settings, Reference frames        : 4 frames
  9. Codec ID                                 : avc1
  10. Codec ID/Info                            : Advanced Video Coding
  11. Duration                                 : 1 h 55 min
  12. Bit rate                                 : 2 500 kb/s
  13. Width                                    : 1 920 pixels
  14. Height                                   : 1 080 pixels
  15. Display aspect ratio                     : 16:9
  16. Frame rate mode                          : Constant
  17. Frame rate                               : 23.976 (23976/1000/189150) FPS
  18. Color space                              : YUV
  19. Chroma subsampling                       : 4:2:0
  20. Bit depth                                : 8 bits
  21. Scan type                                : Progressive
  22. Bits/(Pixel*Frame)                       : 0.050
  23. Stream size                              : 2.02 GiB (92%)
  24. Writing library                          : x264 core 152 r2851M ba24899
  25. Encoding settings                        : cabac=1 / ref=4 / deblock=1:-1:-1 / analyse=0x3:0x113 / me=umh / subme=9 / psy=1 / psy_rd=1.00:0.15 / mixed_ref=1 / me_range=24 / chroma_me=1 / trellis=2 / 8x8dct=1 / cqm=0 / deadzone=21,11 / fast_pskip=1 / chroma_qp_offset=-3 / threads=16 / lookahead_threads=4 / sliced_threads=0 / nr=0 / decimate=1 / interlaced=0 / bluray_compat=0 / constrained_intra=0 / bframes=3 / b_pyramid=2 / b_adapt=2 / b_bias=0 / direct=3 / weightb=1 / open_gop=0 / weightp=2 / keyint=250 / keyint_min=25 / scenecut=40 / intra_refresh=0 / rc_lookahead=50 / rc=2pass / mbtree=1 / bitrate=2500 / ratetol=1.0 / qcomp=0.60 / qpmin=0 / qpmax=69 / qpstep=4 / cplxblur=20.0 / qblur=0.5 / vbv_maxrate=31250 / vbv_bufsize=31250 / nal_hrd=none / filler=0 / ip_ratio=1.40 / aq=3:1.00
  26. Encoded date                             : UTC 2020-08-24 11:24:14
  27. Tagged date                              : UTC 2020-08-24 11:24:14
  28. Codec configuration box                  : avcC
  29. Audio
  30. ID                                       : 2
  31. Format                                   : AAC LC
  32. Format/Info                              : Advanced Audio Codec Low Complexity
  33. Codec ID                                 : mp4a-40-2
  34. Duration                                 : 1 h 55 min
  35. Bit rate mode                            : Constant
  36. Bit rate                                 : 224 kb/s
  37. Channel(s)                               : 6 channels
  38. Channel layout                           : C L R Ls Rs LFE
  39. Sampling rate                            : 48.0 kHz
  40. Frame rate                               : 46.875 FPS (1024 SPF)
  41. Compression mode                         : Lossy
  42. Stream size                              : 185 MiB (8%)
  43. Language                                 : English
  44. Default                                  : Yes
  45. Alternate group                          : 1
  46. Encoded date                             : UTC 2020-08-24 11:24:14
  47. Tagged date                              : UTC 2020-08-24 11:24:14
复制代码






                                       
                                       

                                       
                                       
                                       




回复

使用道具 举报

懒得打字嘛,点击右侧快捷回复 【右侧内容,后台自定义】
您需要登录后才可以回帖 登录 | 立即加入

本版积分规则

Archiver|小黑屋| 蓝光电影网 |网站地图

Copyright © 2021 Comsenz Inc. Powered by 蓝光电影网

蓝光电影网

本站内容由用户自主分享和转载自互联网,转载目的在于传递更多信息,并不代表本网赞同其观点和对其真实性负责。

如有侵权、违反国家法律政策行为,请联系我们,我们会第一时间及时清除和处理!

举报反馈邮箱:[email protected]

快速回复 返回顶部 返回列表