找回密码

蓝光电影网

查看: 17|回复: 0

[剧情] 一切皆好 Alright.Now.2018.1080p.PCOK.WEBRip.DDP5.1.x264-monkee 5.07GB

[复制链接]
蓝光币
386
发表于 2021-8-20 00:52:53 | 显示全部楼层 |阅读模式


◎译  名 一切皆好/Alright Now
◎片  名 Songbird
◎年  代 2018
◎产  地 英国
◎类  别 剧情
◎语  言 英语
◎上映日期 2018-09-07(美国)
◎IMDb评分  4.2/10 from 436 users
◎IMDb链接  https://www.imdb.com/title/tt6421118/
◎豆瓣评分 /10 from 0 users
◎豆瓣链接 https://movie.douban.com/subject/26965043/
◎片  长 95分钟
◎导  演 杰米·亚当斯 Jamie Adams
◎编  剧 杰米·亚当斯 Jamie Adams
◎主  演 寇碧·史莫德斯 Cobie Smulders
       格里芬·邓恩 Griffin Dunne
       黛西·海格达 Daisy Haggard
       杰西卡·海因斯 Jessica Hynes
       艾米丽·阿塔克 Emily Atack
       诺埃尔·克拉克 Noel Clarke
       塔拉·李 Tara Lee
       曼蒂普·迪伦 Mandeep Dhillon
       霍莉·登普西 Holli Dempsey
◎标  签 寇碧·史莫德斯 | 寇碧 | 美国 | 音乐 | 英国 | 未下载 | 剧情 | holli
◎简  介


  ALRIGHT NOW follows Joanne (Cobie Smulders, "How I Met Your Mother") a rock musician who drunkenly enrolls in college after she breaks up with her boyfriend and her band falls apart. Convinced she will give the youngsters a run for their money, Joanne is shocked to discover that no one knows who she is and they could care less about her rock star past. Completely improvised and Directed by Jamie Adams (Black Mountain Poets), ALRIGHT NOW is a feel-good comedy about love, life and the search for new beginnings.
  1. Video
  2. ID                                       : 1
  3. Format                                   : AVC
  4. Format/Info                              : Advanced Video Codec
  5. Format profile                           : [email protected]
  6. Format settings                          : CABAC / 4 Ref Frames
  7. Format settings, CABAC                   : Yes
  8. Format settings, Reference frames        : 4 frames
  9. Codec ID                                 : V_MPEG4/ISO/AVC
  10. Duration                                 : 1 h 35 min
  11. Bit rate                                 : 7 435 kb/s
  12. Nominal bit rate                         : 7 814 kb/s
  13. Width                                    : 1 920 pixels
  14. Height                                   : 1 080 pixels
  15. Display aspect ratio                     : 16:9
  16. Frame rate mode                          : Constant
  17. Frame rate                               : 23.976 (24000/1001/189150) FPS
  18. Color space                              : YUV
  19. Chroma subsampling                       : 4:2:0
  20. Bit depth                                : 8 bits
  21. Scan type                                : Progressive
  22. Bits/(Pixel*Frame)                       : 0.150
  23. Stream size                              : 4.94 GiB (97%)
  24. Writing library                          : x264 core 159 r2999 296494a
  25. Encoding settings                        : cabac=1 / ref=4 / deblock=1:0:0 / analyse=0x3:0x113 / me=umh / subme=7 / psy=1 / psy_rd=0.00:0.00 / mixed_ref=1 / me_range=16 / chroma_me=1 / trellis=1 / 8x8dct=1 / cqm=0 / deadzone=21,11 / fast_pskip=0 / chroma_qp_offset=0 / threads=34 / lookahead_threads=5 / sliced_threads=0 / nr=0 / decimate=1 / interlaced=0 / bluray_compat=0 / constrained_intra=0 / bframes=16 / b_pyramid=2 / b_adapt=1 / b_bias=0 / direct=1 / weightb=1 / open_gop=0 / weightp=2 / keyint=48 / keyint_min=25 / scenecut=0 / intra_refresh=0 / rc_lookahead=40 / rc=2pass / mbtree=1 / bitrate=7814 / ratetol=1.0 / qcomp=0.60 / qpmin=10 / qpmax=51 / qpstep=4 / cplxblur=20.0 / qblur=0.5 / vbv_maxrate=7830 / vbv_bufsize=7830 / nal_hrd=none / filler=0 / ip_ratio=1.41 / aq=1:1.00
  26. Default                                  : Yes
  27. Forced                                   : No
  28. Audio
  29. ID                                       : 2
  30. Format                                   : E-AC-3
  31. Format/Info                              : Enhanced AC-3
  32. Commercial name                          : Dolby Digital Plus
  33. Codec ID                                 : A_EAC3
  34. Duration                                 : 1 h 35 min
  35. Bit rate mode                            : Constant
  36. Bit rate                                 : 192 kb/s
  37. Channel(s)                               : 6 channels
  38. Channel layout                           : L R C LFE Ls Rs
  39. Sampling rate                            : 48.0 kHz
  40. Frame rate                               : 31.250 FPS (1536 SPF)
  41. Compression mode                         : Lossy
  42. Stream size                              : 131 MiB (3%)
  43. Language                                 : English
  44. Service kind                             : Complete Main
  45. Default                                  : Yes
  46. Forced                                   : No
  47. Text
  48. ID                                       : 3
  49. Format                                   : UTF-8
  50. Codec ID                                 : S_TEXT/UTF8
  51. Codec ID/Info                            : UTF-8 Plain Text
  52. Duration                                 : 1 h 32 min
  53. Bit rate                                 : 90 b/s
  54. Count of elements                        : 1934
  55. Stream size                              : 61.4 KiB (0%)
  56. Title                                    : SDH
  57. Language                                 : English
  58. Default                                  : No
  59. Forced                                   : No
  60. Menu
  61. 01:32:24.414                             : en:Credits
复制代码





                                       
                                       

                                       
                                       
                                       




回复

使用道具 举报

懒得打字嘛,点击右侧快捷回复 【右侧内容,后台自定义】
您需要登录后才可以回帖 登录 | 立即加入

本版积分规则

Archiver|小黑屋| 蓝光电影网 |网站地图

Copyright © 2021 Comsenz Inc. Powered by 蓝光电影网

蓝光电影网

本站内容由用户自主分享和转载自互联网,转载目的在于传递更多信息,并不代表本网赞同其观点和对其真实性负责。

如有侵权、违反国家法律政策行为,请联系我们,我们会第一时间及时清除和处理!

举报反馈邮箱:[email protected]

快速回复 返回顶部 返回列表