找回密码

蓝光电影网

查看: 4|回复: 0

[剧情] 光彩年华/少年壮志莫言愁 Bright.Young.Things.2003.1080p.PCOK.WEBRip.AAC2.0.x264-monkee 5.74GB

[复制链接]
蓝光币
382
发表于 2021-8-20 00:52:58 | 显示全部楼层 |阅读模式


◎译  名 光彩韶华/少年壮志莫言愁
◎片  名 Bright Young Things
◎年  代 2003
◎产  地 英国
◎类  别 剧情 / 笑剧 / 战争
◎语  言 英语
◎上映日期 2003-10-03
◎IMDb评分  6.6/10 from 5085 users
◎IMDb链接  https://www.imdb.com/title/tt0325123/
◎豆瓣评分 7.8/10 from 1835 users
◎豆瓣链接 https://movie.douban.com/subject/1888407/
◎片  长 106 分钟
◎导  演 斯蒂芬·弗雷 Stephen Fry
◎编  剧 伊夫林·沃 Evelyn Waugh / 斯蒂芬·弗雷 Stephen Fry
◎主  演 斯蒂芬·坎贝尔·莫尔 Stephen Campbell Moore
       艾米莉·莫迪默 Emily Mortimer
       詹姆斯·麦卡沃伊 James McAvoy
       麦克·辛 Michael Sheen
       大卫·田纳特 David Tennant
       马克·加蒂斯 Mark Gatiss
       Angela Thorne
       玛格丽特·提扎克 Margaret Tyzack
       哈丽特·瓦尔特 Harriet Walter
       Haidée Augusta
       费奈拉·伍尔加 Fenella Woolgar
       埃姆雷斯·库珀 Emrhys Cooper
       丹·艾克罗伊德 Dan Aykroyd
       丽莎·迪伦 Lisa Dillon
       内维尔·菲利普斯 Neville Phillips
       约翰·米尔斯 John Mills
       彼得·奥图尔 Peter O'Toole
       比尔·帕特森 Bill Paterson
       西蒙·卡洛 Simon Callow
       吉姆·布劳德本特 Jim Broadbent
       艾美达·斯丹顿 Imelda Staunton
       托尼·毛德斯雷 Tony Maudsley
       斯托卡特·詹宁 Stockard Channing
       奈格尔·派纳 Nigel Planer
       朱莉亚·麦肯齐 Julia McKenzie
       尼古拉斯·勒·普雷沃斯特 Nicholas Le Prevost
       盖伊·亨利 Guy Henry
       约翰·福兰克林·罗宾斯 John Franklyn-Robbins
       吉姆·卡特 Jim Carter
       西蒙·迈克伯尼 Simon McBurney
       斯蒂芬·弗雷 Stephen Fry
       理查德·E·格兰特 Richard E. Grant
       亚力克·纽曼 Alec Newman
◎标  签 英国 | JamesMcAvoy | 英国电影 | MichaelSheen | DavidTennant | StephenFry | 2003 | 电影
◎简  介


  故事发生在三十年月的伦敦,这座庞大的城市里,处处满盈着奢侈和浮华的气味,男男女女们沉醉于此,不知魏晋。亚当(史蒂芬·坎贝尔·摩尔 Stephen Campbell Moore 饰)是一位冷静无闻的作家,他将名媛妮娜(艾米莉·莫迪默 Emily Mortimer 饰)当做了“垫脚石”,希望可以经过两人的婚姻成功打入灯红酒绿的上流社会。
  
  妮娜堕入了同亚当的热恋中没法自拔,可她那守旧而又陈腐的家属却并不看好两人的亲事,他们底子就不把亚当看在眼里,感觉他底子就配不上妮娜。面临家人的否决,妮娜决议叛逆一把,她从家中偷偷溜了出来,找到了亚当,但是,对于自己和妮娜两人的处境,亚当也手足无措,两人的未来看似一片黑暗。
  1. Video
  2. ID                                       : 1
  3. Format                                   : AVC
  4. Format/Info                              : Advanced Video Codec
  5. Format profile                           : [email protected]
  6. Format settings                          : CABAC / 4 Ref Frames
  7. Format settings, CABAC                   : Yes
  8. Format settings, Reference frames        : 4 frames
  9. Codec ID                                 : V_MPEG4/ISO/AVC
  10. Duration                                 : 1 h 46 min
  11. Bit rate                                 : 7 814 kb/s
  12. Width                                    : 1 920 pixels
  13. Height                                   : 1 080 pixels
  14. Display aspect ratio                     : 16:9
  15. Frame rate mode                          : Constant
  16. Frame rate                               : 23.976 (24000/1001/189150) FPS
  17. Color space                              : YUV
  18. Chroma subsampling                       : 4:2:0
  19. Bit depth                                : 8 bits
  20. Scan type                                : Progressive
  21. Bits/(Pixel*Frame)                       : 0.157
  22. Stream size                              : 5.67 GiB (99%)
  23. Writing library                          : x264 core 159 r2999 296494a
  24. Encoding settings                        : cabac=1 / ref=4 / deblock=1:0:0 / analyse=0x3:0x113 / me=umh / subme=7 / psy=1 / psy_rd=0.00:0.00 / mixed_ref=1 / me_range=16 / chroma_me=1 / trellis=1 / 8x8dct=1 / cqm=0 / deadzone=21,11 / fast_pskip=0 / chroma_qp_offset=0 / threads=34 / lookahead_threads=5 / sliced_threads=0 / nr=0 / decimate=1 / interlaced=0 / bluray_compat=0 / constrained_intra=0 / bframes=16 / b_pyramid=2 / b_adapt=1 / b_bias=0 / direct=1 / weightb=1 / open_gop=0 / weightp=2 / keyint=48 / keyint_min=25 / scenecut=0 / intra_refresh=0 / rc_lookahead=40 / rc=2pass / mbtree=1 / bitrate=7814 / ratetol=1.0 / qcomp=0.60 / qpmin=10 / qpmax=51 / qpstep=4 / cplxblur=20.0 / qblur=0.5 / vbv_maxrate=7830 / vbv_bufsize=7830 / nal_hrd=none / filler=0 / ip_ratio=1.41 / aq=1:1.00
  25. Default                                  : Yes
  26. Forced                                   : No
  27. Audio
  28. ID                                       : 2
  29. Format                                   : AAC LC
  30. Format/Info                              : Advanced Audio Codec Low Complexity
  31. Codec ID                                 : A_AAC-2
  32. Duration                                 : 1 h 46 min
  33. Bit rate                                 : 96.0 kb/s
  34. Channel(s)                               : 2 channels
  35. Channel layout                           : L R
  36. Sampling rate                            : 48.0 kHz
  37. Frame rate                               : 46.875 FPS (1024 SPF)
  38. Compression mode                         : Lossy
  39. Stream size                              : 73.6 MiB (1%)
  40. Language                                 : English
  41. Default                                  : Yes
  42. Forced                                   : No
  43. Text
  44. ID                                       : 3
  45. Format                                   : UTF-8
  46. Codec ID                                 : S_TEXT/UTF8
  47. Codec ID/Info                            : UTF-8 Plain Text
  48. Duration                                 : 1 h 45 min
  49. Bit rate                                 : 84 b/s
  50. Count of elements                        : 2342
  51. Stream size                              : 65.8 KiB (0%)
  52. Title                                    : SDH
  53. Language                                 : English
  54. Default                                  : No
  55. Forced                                   : No
  56. Menu
  57. 01:41:57.403                             : en:Credits
复制代码






                                       
                                       

                                       
                                       
                                       




回复

使用道具 举报

懒得打字嘛,点击右侧快捷回复 【右侧内容,后台自定义】
您需要登录后才可以回帖 登录 | 立即加入

本版积分规则

Archiver|小黑屋| 蓝光电影网 |网站地图

Copyright © 2021 Comsenz Inc. Powered by 蓝光电影网

蓝光电影网

本站内容由用户自主分享和转载自互联网,转载目的在于传递更多信息,并不代表本网赞同其观点和对其真实性负责。

如有侵权、违反国家法律政策行为,请联系我们,我们会第一时间及时清除和处理!

举报反馈邮箱:[email protected]

快速回复 返回顶部 返回列表