找回密码

蓝光电影网

查看: 16|回复: 0

[剧情] 同流合污/枪口下的合作 Collaborator.2011.1080p.AMZN.WEBRip.DDP5.1.x264-monkee 5.18GB

[复制链接]
蓝光币
426
发表于 2021-8-20 00:53:03 | 显示全部楼层 |阅读模式


◎译  名 随波逐流/枪口下的合作
◎片  名 Collaborator
◎年  代 2010
◎产  地 美国,加拿大
◎类  别 剧情 / 笑剧
◎语  言 英语
◎上映日期 2010
◎IMDb评分  5.9/10 from 774 users
◎IMDb链接  https://www.imdb.com/title/tt1555058/
◎豆瓣评分 6.9/10 from 87 users
◎豆瓣链接 https://movie.douban.com/subject/4924787/
◎导  演 马丁·唐文 Martin Donovan
◎编  剧 马丁·唐文 Martin Donovan
◎主  演 马丁·唐文 Martin Donovan
       大卫·摩斯 David Morse
       奥莉维亚·威廉姆斯 Olivia Williams
       凯瑟琳·海蒙德 Katherine Helmond
       Melissa Auf Der Maur
       朱利安·瑞钦斯 Julian Richings
◎标  签 剧情 | 加拿大 | 美国 | 笑剧 | 自力电影 | 美国电影 | 上海电影节 | 电影节
◎简  介


  A playwright whose marriage and career are in a free fall has an explosive run-in with his former neighbor, a right-wing ex-con.
◎获奖情况
  第46届卡罗维发利国际电影节 ?(2011)
  水晶地球仪奖最好男演员 大卫·摩斯
  水晶地球仪奖(提名) 马丁·唐文
  国际影评人同盟奖 马丁·唐文
  1. Video
  2. ID                                       : 1
  3. Format                                   : AVC
  4. Format/Info                              : Advanced Video Codec
  5. Format profile                           : [email protected]
  6. Format settings                          : CABAC / 4 Ref Frames
  7. Format settings, CABAC                   : Yes
  8. Format settings, Reference frames        : 4 frames
  9. Codec ID                                 : V_MPEG4/ISO/AVC
  10. Duration                                 : 1 h 27 min
  11. Bit rate mode                            : Constant
  12. Bit rate                                 : 7 844 kb/s
  13. Nominal bit rate                         : 10 000 kb/s
  14. Width                                    : 1 920 pixels
  15. Height                                   : 1 080 pixels
  16. Display aspect ratio                     : 16:9
  17. Frame rate mode                          : Constant
  18. Frame rate                               : 23.976 (24000/1001/189150) FPS
  19. Color space                              : YUV
  20. Chroma subsampling                       : 4:2:0
  21. Bit depth                                : 8 bits
  22. Scan type                                : Progressive
  23. Bits/(Pixel*Frame)                       : 0.158
  24. Stream size                              : 4.79 GiB (92%)
  25. Default                                  : Yes
  26. Forced                                   : No
  27. Color range                              : Limited
  28. Color primaries                          : BT.709
  29. Transfer characteristics                 : BT.709
  30. Matrix coefficients                      : BT.709
  31. Audio
  32. ID                                       : 2
  33. Format                                   : E-AC-3
  34. Format/Info                              : Enhanced AC-3
  35. Commercial name                          : Dolby Digital Plus
  36. Codec ID                                 : A_EAC3
  37. Duration                                 : 1 h 27 min
  38. Bit rate mode                            : Constant
  39. Bit rate                                 : 640 kb/s
  40. Channel(s)                               : 6 channels
  41. Channel layout                           : L R C LFE Ls Rs
  42. Sampling rate                            : 48.0 kHz
  43. Frame rate                               : 31.250 FPS (1536 SPF)
  44. Compression mode                         : Lossy
  45. Stream size                              : 400 MiB (8%)
  46. Language                                 : English
  47. Service kind                             : Complete Main
  48. Default                                  : Yes
  49. Forced                                   : No
  50. Text #1
  51. ID                                       : 3
  52. Format                                   : UTF-8
  53. Codec ID                                 : S_TEXT/UTF8
  54. Codec ID/Info                            : UTF-8 Plain Text
  55. Duration                                 : 1 h 19 min
  56. Bit rate                                 : 63 b/s
  57. Count of elements                        : 1495
  58. Stream size                              : 36.8 KiB (0%)
  59. Language                                 : English
  60. Default                                  : No
  61. Forced                                   : No
  62. Text #2
  63. ID                                       : 4
  64. Format                                   : UTF-8
  65. Codec ID                                 : S_TEXT/UTF8
  66. Codec ID/Info                            : UTF-8 Plain Text
  67. Duration                                 : 1 h 20 min
  68. Bit rate                                 : 68 b/s
  69. Count of elements                        : 1656
  70. Stream size                              : 40.5 KiB (0%)
  71. Title                                    : SDH
  72. Language                                 : English
  73. Default                                  : No
  74. Forced                                   : No
  75. Menu
  76. 00:00:00.000                             : en:Studio Logos
  77. 00:00:47.000                             : en:Opening Credits
  78. 00:03:42.000                             : en:Robert goes to his mother\'s house, Robert\'s house
  79. 00:06:17.000                             : en:Robert reminisces about the old times, Robert\'s house
  80. 00:09:05.000                             : en:Robert goes to Maurice\'s office, Maurice\'s office
  81. 00:10:30.000                             : en:Robert meets Gus & they plan to get together soon, Robert\'s house
  82. 00:14:53.000                             : en:Robert calls Emma after a long time & asks her to meet, Robert\'s house
  83. 00:15:52.000                             : en:Robert takes his mother to a restaurant, restaurant
  84. 00:17:09.000                             : en:Robert & Emma meet after 8 years, Emma\'s house
  85. 00:19:26.000                             : en:Robert calls Maurice for the script job, Emma\'s house
  86. 00:21:50.000                             : en:Robert wants to start his relationship over with Emma again, house
  87. 00:24:38.000                             : en:Gus visits Robert\'s house & wants to hang out, Robert\'s house
  88. 00:27:08.000                             : en:Gus talks to Robert about his career & life, Robert\'s house
  89. 00:28:59.000                             : en:Gus takes Robert as hostage, Robert\'s house
  90. 00:30:49.000                             : en:Robert gets scared but Gus calms him down, Robert\'s house
  91. 00:33:49.000                             : en:Police threaten Gus, Robert\'s house
  92. 00:36:31.000                             : en:Gus talks about his dad with Robert, Robert\'s house
  93. 00:38:44.000                             : en:Betty meets Irene, street
  94. 00:39:44.000                             : en:Gus & Robert talk about their old friends, Robert\'s house
  95. 00:43:02.000                             : en:Emma learns about Robert being held hostage at his house, Emma\'s house
  96. 00:44:23.000                             : en:Robert suggests that Gus could be a writer too, Robert\'s house
  97. 00:46:44.000                             : en:Gus learns writing skills from Robert, Robert\'s house
  98. 00:49:34.000                             : en:Gus asks Robert to call Emma, Robert\'s house
  99. 00:51:46.000                             : en:Gus faces difficulty while talking to Emma, Robert\'s house
  100. 00:54:52.000                             : en:Gus is interrupted while talking to Emma, Robert\'s house
  101. 00:57:18.000                             : en:Gus gets furious at cops for disturbing him, Robert\'s house
  102. 01:00:01.000                             : en:Emma asks Gus not to do anything foolish, Robert\'s house
  103. 01:03:56.000                             : en:The media shows a footage of Emma & Robert together, Robert\'s house
  104. 01:06:33.000                             : en:Robert calls Alice to tell he still loves her, house
  105. 01:09:14.000                             : en:Gus wants a last improvisation session with Robert, Robert\'s house
  106. 01:12:53.000                             : en:Gus gets at Robert, Robert\'s house
  107. 01:16:13.000                             : en:Gus fires a gun in the house, Robert\'s house
  108. 01:17:44.000                             : en:Everything is set straight, Robert\'s house
  109. 01:21:15.000                             : en:End Credits
复制代码






                                       
                                       

                                       
                                       
                                       




回复

使用道具 举报

懒得打字嘛,点击右侧快捷回复 【右侧内容,后台自定义】
您需要登录后才可以回帖 登录 | 立即加入

本版积分规则

Archiver|小黑屋| 蓝光电影网 |网站地图

Copyright © 2021 Comsenz Inc. Powered by 蓝光电影网

蓝光电影网

本站内容由用户自主分享和转载自互联网,转载目的在于传递更多信息,并不代表本网赞同其观点和对其真实性负责。

如有侵权、违反国家法律政策行为,请联系我们,我们会第一时间及时清除和处理!

举报反馈邮箱:[email protected]

快速回复 返回顶部 返回列表