找回密码

蓝光电影网

查看: 31|回复: 0

[剧情] 冬日假期 One.Winter.Weekend.2018.1080p.AMZN.WEBRip.DDP5.1.x264-ABM 6.16GB

[复制链接]
蓝光币
426
发表于 2021-8-20 00:53:07 | 显示全部楼层 |阅读模式


◎译  名 冬季假期/Snowbound
◎片  名 One Winter Weekend
◎年  代 2018
◎产  地 美国
◎类  别 剧情 / 恋爱 / 家庭
◎语  言 英语
◎上映日期 2018-01-20(美国)
◎IMDb评分  6.8/10 from 1166 users
◎IMDb链接  https://www.imdb.com/title/tt7817348/
◎豆瓣评分 /10 from 0 users
◎豆瓣链接 https://movie.douban.com/subject/30126658/
◎片  长 84分钟
◎导  演 加里·耶茨 Gary Yates
◎主  演 泰勒·科尔 Taylor Cole
       杰克·特纳 Jack Turner
       鲁奇娅·伯纳德 Rukiya Bernard
       Dewshane Williams
       克里斯汀·哈里斯 Kristen Harris
       碧·桑托斯 Bea Santos
◎标  签 Hallmark
◎简  介


  Cara, a women's magazine writer who gets burned by her boyfriend on New Years' Eve, decides to go on a dating detox. Challenged by her employer to write about it, she hopes a spontaneous ski getaway with her best friend will spark inspiration. Complicating matters, they discover they've double booked their chalet with two eligible men, including Ben, an entrepreneur. When the share-mates get snowed in, Cara and Ben are thrown together.
  1. Video
  2. ID                                       : 1
  3. Format                                   : AVC
  4. Format/Info                              : Advanced Video Codec
  5. Format profile                           : [email protected]
  6. Format settings                          : CABAC / 4 Ref Frames
  7. Format settings, CABAC                   : Yes
  8. Format settings, Reference frames        : 4 frames
  9. Codec ID                                 : V_MPEG4/ISO/AVC
  10. Duration                                 : 1 h 27 min
  11. Bit rate mode                            : Constant
  12. Bit rate                                 : 9 484 kb/s
  13. Nominal bit rate                         : 10 000 kb/s
  14. Width                                    : 1 920 pixels
  15. Height                                   : 1 080 pixels
  16. Display aspect ratio                     : 16:9
  17. Frame rate mode                          : Constant
  18. Frame rate                               : 23.976 (24000/1001/189150) FPS
  19. Color space                              : YUV
  20. Chroma subsampling                       : 4:2:0
  21. Bit depth                                : 8 bits
  22. Scan type                                : Progressive
  23. Bits/(Pixel*Frame)                       : 0.191
  24. Stream size                              : 5.77 GiB (94%)
  25. Language                                 : English
  26. Default                                  : Yes
  27. Forced                                   : No
  28. Color range                              : Limited
  29. Color primaries                          : BT.709
  30. Transfer characteristics                 : BT.709
  31. Matrix coefficients                      : BT.709
  32. Audio
  33. ID                                       : 2
  34. Format                                   : E-AC-3
  35. Format/Info                              : Enhanced AC-3
  36. Commercial name                          : Dolby Digital Plus
  37. Codec ID                                 : A_EAC3
  38. Duration                                 : 1 h 27 min
  39. Bit rate mode                            : Constant
  40. Bit rate                                 : 640 kb/s
  41. Channel(s)                               : 6 channels
  42. Channel layout                           : L R C LFE Ls Rs
  43. Sampling rate                            : 48.0 kHz
  44. Frame rate                               : 31.250 FPS (1536 SPF)
  45. Compression mode                         : Lossy
  46. Stream size                              : 399 MiB (6%)
  47. Language                                 : English
  48. Service kind                             : Complete Main
  49. Default                                  : Yes
  50. Forced                                   : No
  51. Text
  52. ID                                       : 3
  53. Format                                   : UTF-8
  54. Codec ID                                 : S_TEXT/UTF8
  55. Codec ID/Info                            : UTF-8 Plain Text
  56. Duration                                 : 1 h 26 min
  57. Bit rate                                 : 91 b/s
  58. Count of elements                        : 1849
  59. Stream size                              : 57.8 KiB (0%)
  60. Language                                 : English
  61. Default                                  : No
  62. Forced                                   : No
复制代码






                                       
                                       

                                       
                                       
                                       




回复

使用道具 举报

懒得打字嘛,点击右侧快捷回复 【右侧内容,后台自定义】
您需要登录后才可以回帖 登录 | 立即加入

本版积分规则

Archiver|小黑屋| 蓝光电影网 |网站地图

Copyright © 2021 Comsenz Inc. Powered by 蓝光电影网

蓝光电影网

本站内容由用户自主分享和转载自互联网,转载目的在于传递更多信息,并不代表本网赞同其观点和对其真实性负责。

如有侵权、违反国家法律政策行为,请联系我们,我们会第一时间及时清除和处理!

举报反馈邮箱:[email protected]

快速回复 返回顶部 返回列表