找回密码

蓝光电影网

查看: 8|回复: 0

[剧情] 小树的故事/少年小树之歌 The.Education.of.Little.Tree.1997.1080p.AMZN.WEBRip.DDP5.1.x264-NTG 10.20GB

[复制链接]
蓝光币
426
发表于 2021-8-20 00:53:12 | 显示全部楼层 |阅读模式


◎译  名 小树的故事/少年小树之歌
◎片  名 The Education of Little Tree
◎年  代 1997
◎产  地 加拿大
◎类  别 剧情
◎语  言 英语
◎上映日期 1997-12-25
◎IMDb评分  7.2/10 from 1506 users
◎IMDb链接  https://www.imdb.com/title/tt0119052/
◎豆瓣评分 8.7/10 from 3360 users
◎豆瓣链接 https://movie.douban.com/subject/1305814/
◎片  长 116分钟
◎导  演 理查德·弗雷登伯格 Richard Friedenberg
◎编  剧 小厄尔·哈姆纳 Earl Hamner Jr. / 福里斯特·卡特 Forrest Carter / 理查德·弗雷登伯格 Richard Friedenberg
◎主  演 约瑟夫·阿什顿 Joseph Ashton
       詹姆斯·克伦威尔 James Cromwell
       坦图·卡丁诺 Tantoo Cardinal
       米卡·波瑞姆 Mika Boorem
       格雷厄姆·格林 Graham Greene
       理查德·朱特拉斯 Richard Jutras
       罗布·卡彭特 Rob Carpenter
       莱尼·帕克 Leni Parker
       阿莱恩·古勒姆 Alain Goulem
       Christopher Fennell
       Norris Domingue
       马克·杰弗里·米勒 Mark Jeffrey Miller
       拉里·戴 Larry Day
       丽莎·布朗温·摩尔 Lisa Bronwyn Moore
◎标  签 长大 | 童年 | 儿童 | 加拿大 | 原居民 | 剧情 | 孩子 | 美国电影
◎简  介


  八岁印第安小孩“小树”,在双亲去世后,被送至田纳西州的史莫基山,与祖怙恃同住。小树与住在深山中的祖怙恃展开了一段新生活,他的新生活布满了摸索与冒险,有欢笑有泪水,固然有成功与挫折。同时,小树也熟悉了很多好朋友,包括奥秘的奇拉几族先知——“柳树”约翰。1930年的美国,虽然经济冷落,生活困苦,可是对小树来说,却是最难忘的时光。
  1. Video
  2. ID                                       : 1
  3. Format                                   : AVC
  4. Format/Info                              : Advanced Video Codec
  5. Format profile                           : [email protected]
  6. Format settings                          : CABAC / 4 Ref Frames
  7. Format settings, CABAC                   : Yes
  8. Format settings, Reference frames        : 4 frames
  9. Codec ID                                 : V_MPEG4/ISO/AVC
  10. Duration                                 : 1 h 55 min
  11. Bit rate mode                            : Variable
  12. Bit rate                                 : 12.0 Mb/s
  13. Maximum bit rate                         : 15.0 Mb/s
  14. Width                                    : 1 920 pixels
  15. Height                                   : 1 080 pixels
  16. Display aspect ratio                     : 16:9
  17. Frame rate mode                          : Constant
  18. Frame rate                               : 23.976 (24000/1001/189150) FPS
  19. Color space                              : YUV
  20. Chroma subsampling                       : 4:2:0
  21. Bit depth                                : 8 bits
  22. Scan type                                : Progressive
  23. Bits/(Pixel*Frame)                       : 0.241
  24. Stream size                              : 9.69 GiB (95%)
  25. Default                                  : Yes
  26. Forced                                   : No
  27. Color range                              : Limited
  28. Color primaries                          : BT.709
  29. Transfer characteristics                 : BT.709
  30. Matrix coefficients                      : BT.709
  31. Audio
  32. ID                                       : 2
  33. Format                                   : E-AC-3
  34. Format/Info                              : Enhanced AC-3
  35. Commercial name                          : Dolby Digital Plus
  36. Codec ID                                 : A_EAC3
  37. Duration                                 : 1 h 55 min
  38. Bit rate mode                            : Constant
  39. Bit rate                                 : 640 kb/s
  40. Channel(s)                               : 6 channels
  41. Channel layout                           : L R C LFE Ls Rs
  42. Sampling rate                            : 48.0 kHz
  43. Frame rate                               : 31.250 FPS (1536 SPF)
  44. Compression mode                         : Lossy
  45. Stream size                              : 530 MiB (5%)
  46. Language                                 : English
  47. Service kind                             : Complete Main
  48. Default                                  : Yes
  49. Forced                                   : No
  50. Text
  51. ID                                       : 3
  52. Format                                   : UTF-8
  53. Codec ID                                 : S_TEXT/UTF8
  54. Codec ID/Info                            : UTF-8 Plain Text
  55. Duration                                 : 1 h 51 min
  56. Bit rate                                 : 41 b/s
  57. Count of elements                        : 1266
  58. Stream size                              : 34.1 KiB (0%)
  59. Language                                 : English
  60. Default                                  : No
  61. Forced                                   : No
复制代码





                                       
                                       

                                       
                                       
                                       




回复

使用道具 举报

懒得打字嘛,点击右侧快捷回复 【右侧内容,后台自定义】
您需要登录后才可以回帖 登录 | 立即加入

本版积分规则

Archiver|小黑屋| 蓝光电影网 |网站地图

Copyright © 2021 Comsenz Inc. Powered by 蓝光电影网

蓝光电影网

本站内容由用户自主分享和转载自互联网,转载目的在于传递更多信息,并不代表本网赞同其观点和对其真实性负责。

如有侵权、违反国家法律政策行为,请联系我们,我们会第一时间及时清除和处理!

举报反馈邮箱:[email protected]

快速回复 返回顶部 返回列表