找回密码

蓝光电影网

查看: 18|回复: 0

[剧情] 琴韵动我心/苏莎嘉夫人 Madame.Sousatzka.1988.1080p.WEBRip.x264-RARBG 2.32GB

[复制链接]
蓝光币
382
发表于 2021-8-20 00:53:22 | 显示全部楼层 |阅读模式


◎译  名 琴韵动我心/苏莎嘉夫人/苏萨茨卡夫人
◎片  名 Madame Sousatzka
◎年  代 1988
◎产  地 英国
◎类  别 剧情 / 音乐
◎语  言 英语
◎上映日期 1988-09-17
◎IMDb评分  6.7/10 from 1289 users
◎IMDb链接  https://www.imdb.com/title/tt0095564/
◎豆瓣评分 /10 from 0 users
◎豆瓣链接 https://movie.douban.com/subject/1305767/
◎片  长 122 分钟
◎导  演 约翰·施莱辛格 John Schlesinger
◎编  剧 伯尼斯·鲁本斯 Bernice Rubens / 约翰·施莱辛格 John Schlesinger / 鲁丝·普罗厄·贾布瓦拉 Ruth Prawer Jhabvala / 皮特·摩根 Peter Morgan / Mark Wadlow
◎主  演 雪莉·麦克雷恩 Shirley MacLaine
       纳温·乔杜里 Navin Chowdhry
       佩吉·阿什克罗福特 Peggy Ashcroft
       弗农·多布切夫 Vernon Dobtcheff
       利·劳森 Leigh Lawson
       崔姬 Twiggy
       亨普瑞·波顿 Humphrey Burton
       Jeremy Sinden
       罗伯特·里耶蒂 Robert Rietty
       李·蒙太古 Lee Montague
       莎巴娜·阿兹米 Shabana Azmi
       杰弗里·拜尔顿 Geoffrey Bayldon
       简·安德森 Jean Anderson
       格雷格·埃利斯 Greg Ellis
       罗杰·汉蒙德 Roger Hammond
       Cheryl Miller
       Jamila Massey
       Carol Gillies
◎标  签 音乐 | 英国 | ShirleyMacLaine | 雪莉·麦克雷恩 | 教育 | 英国电影 | 女性 | 1988
◎简  介


  一位住在美国的俄裔钢琴教员索沙兹卡夫人,她讲授过度认真,由于她以为自己不单教人抚琴,还讲授生品味人生。她教导一位十五岁的印度少年曼尼克,要求他绝对服从,但她之前一位女门生珍妮的男朋友却不竭游说曼尼克出来演奏赢利,因此引发了印 度少年人生态度的改变。
◎获奖情况
  第45届威尼斯电影节 ?(1988)
  主比赛单元金狮奖(提名) 约翰·施莱辛格
  沃尔皮杯最好女演员 雪莉·麦克雷恩
  1. Video
  2. ID                                       : 1
  3. Format                                   : AVC
  4. Format/Info                              : Advanced Video Codec
  5. Format profile                           : [email protected]
  6. Format settings                          : CABAC / 4 Ref Frames
  7. Format settings, CABAC                   : Yes
  8. Format settings, Reference frames        : 4 frames
  9. Codec ID                                 : avc1
  10. Codec ID/Info                            : Advanced Video Coding
  11. Duration                                 : 2 h 1 min
  12. Bit rate                                 : 2 500 kb/s
  13. Width                                    : 1 920 pixels
  14. Height                                   : 1 080 pixels
  15. Display aspect ratio                     : 16:9
  16. Frame rate mode                          : Constant
  17. Frame rate                               : 29.970 (29970/1000/189150) FPS
  18. Color space                              : YUV
  19. Chroma subsampling                       : 4:2:0
  20. Bit depth                                : 8 bits
  21. Scan type                                : Progressive
  22. Bits/(Pixel*Frame)                       : 0.040
  23. Stream size                              : 2.12 GiB (91%)
  24. Writing library                          : x264 core 152 r2851M ba24899
  25. Encoding settings                        : cabac=1 / ref=4 / deblock=1:-1:-1 / analyse=0x3:0x113 / me=umh / subme=9 / psy=1 / psy_rd=1.00:0.15 / mixed_ref=1 / me_range=24 / chroma_me=1 / trellis=2 / 8x8dct=1 / cqm=0 / deadzone=21,11 / fast_pskip=1 / chroma_qp_offset=-3 / threads=16 / lookahead_threads=4 / sliced_threads=0 / nr=0 / decimate=1 / interlaced=0 / bluray_compat=0 / constrained_intra=0 / bframes=3 / b_pyramid=2 / b_adapt=2 / b_bias=0 / direct=3 / weightb=1 / open_gop=0 / weightp=2 / keyint=250 / keyint_min=25 / scenecut=40 / intra_refresh=0 / rc_lookahead=50 / rc=2pass / mbtree=1 / bitrate=2500 / ratetol=1.0 / qcomp=0.60 / qpmin=0 / qpmax=69 / qpstep=4 / cplxblur=20.0 / qblur=0.5 / vbv_maxrate=31250 / vbv_bufsize=31250 / nal_hrd=none / filler=0 / ip_ratio=1.40 / aq=3:1.00
  26. Encoded date                             : UTC 2020-08-23 16:45:07
  27. Tagged date                              : UTC 2020-08-23 16:45:07
  28. Codec configuration box                  : avcC
  29. Audio
  30. ID                                       : 2
  31. Format                                   : AAC LC
  32. Format/Info                              : Advanced Audio Codec Low Complexity
  33. Codec ID                                 : mp4a-40-2
  34. Duration                                 : 2 h 1 min
  35. Bit rate mode                            : Constant
  36. Bit rate                                 : 224 kb/s
  37. Channel(s)                               : 2 channels
  38. Channel layout                           : L R
  39. Sampling rate                            : 48.0 kHz
  40. Frame rate                               : 46.875 FPS (1024 SPF)
  41. Compression mode                         : Lossy
  42. Stream size                              : 195 MiB (8%)
  43. Language                                 : English
  44. Default                                  : Yes
  45. Alternate group                          : 1
  46. Encoded date                             : UTC 2020-08-23 16:45:07
  47. Tagged date                              : UTC 2020-08-23 16:45:07
复制代码





                                       
                                       

                                       
                                       
                                       




回复

使用道具 举报

懒得打字嘛,点击右侧快捷回复 【右侧内容,后台自定义】
您需要登录后才可以回帖 登录 | 立即加入

本版积分规则

Archiver|小黑屋| 蓝光电影网 |网站地图

Copyright © 2021 Comsenz Inc. Powered by 蓝光电影网

蓝光电影网

本站内容由用户自主分享和转载自互联网,转载目的在于传递更多信息,并不代表本网赞同其观点和对其真实性负责。

如有侵权、违反国家法律政策行为,请联系我们,我们会第一时间及时清除和处理!

举报反馈邮箱:[email protected]

快速回复 返回顶部 返回列表