找回密码

蓝光电影网

查看: 10|回复: 0

[剧情] 焦橙邪说/谎画情人 The.Burnt.Orange.Heresy.2019.1080p.WEB-DL.DD5.1.H264-FGT 3.41GB

[复制链接]
蓝光币
382
发表于 2021-8-20 00:53:47 | 显示全部楼层 |阅读模式


◎译  名 焦橙邪说/谎画情人(台)
◎片  名 The Burnt Orange Heresy
◎年  代 2019
◎产  地 英国,意大利
◎类  别 剧情 / 行动 / 惊悚
◎语  言 英语
◎上映日期 2019-09-07(威尼斯电影节) / 2020-08-07(美国)
◎IMDb评分  5.8/10 from 581 users
◎IMDb链接  https://www.imdb.com/title/tt8342680/
◎豆瓣评分 /10 from 0 users
◎豆瓣链接 https://movie.douban.com/subject/3988738/
◎片  长 99分钟
◎导  演 吉塞佩·卡波通蒂 Giuseppe Capotondi
◎编  剧 斯科特·B·史姑娘 Scott B. Smith / 查尔斯·威尔福特 Charles Willeford
◎主  演 伊丽莎白·德比茨基 Elizabeth Debicki
       唐纳德·萨瑟兰 Donald Sutherland
       克拉斯·邦 Claes Bang
       米克·贾格尔 Mick Jagger
       罗莎琳德·霍尔斯特德 Rosalind Halstead
       凯蒂·麦戈文 Katie McGovern
       亚历克西雅·默里 Alexia Murray
◎标  签 意大利 | 犯罪 | 剧情 | 悬疑 | 2020 | 英国 | 2019 | 电影
◎简  介


  影片改编自查尔斯·威尔福德的同名小说。故事报告1970年的意大利,一位美国艺术批评家(克拉斯饰)与一位正在游历欧洲的女性(德比茨基饰),前往意大利造访艺术品收藏家(仍在选角中)时萌生了窃取艺术品的动机。沃肯在其中饰演一位艺术富翁Jerome Debney。
  1. Video
  2. ID                                       : 1
  3. Format                                   : AVC
  4. Format/Info                              : Advanced Video Codec
  5. Format profile                           : [email protected]
  6. Format settings                          : CABAC / 5 Ref Frames
  7. Format settings, CABAC                   : Yes
  8. Format settings, Reference frames        : 5 frames
  9. Codec ID                                 : V_MPEG4/ISO/AVC
  10. Duration                                 : 1 h 38 min
  11. Bit rate                                 : 4 592 kb/s
  12. Width                                    : 1 920 pixels
  13. Height                                   : 790 pixels
  14. Display aspect ratio                     : 2.40:1
  15. Frame rate mode                          : Constant
  16. Frame rate                               : 23.976 (23976/1000/189150) FPS
  17. Color space                              : YUV
  18. Chroma subsampling                       : 4:2:0
  19. Bit depth                                : 8 bits
  20. Scan type                                : Progressive
  21. Bits/(Pixel*Frame)                       : 0.126
  22. Stream size                              : 3.14 GiB (92%)
  23. Title                                    : The.Burnt.Orange.Heresy.2019.1080p.WEB-DL.DD5.1.H264-FGT
  24. Language                                 : English
  25. Default                                  : Yes
  26. Forced                                   : No
  27. Color range                              : Limited
  28. Color primaries                          : BT.709
  29. Transfer characteristics                 : BT.709
  30. Matrix coefficients                      : BT.709
  31. Audio
  32. ID                                       : 2
  33. Format                                   : AC-3
  34. Format/Info                              : Audio Coding 3
  35. Commercial name                          : Dolby Digital
  36. Codec ID                                 : A_AC3
  37. Duration                                 : 1 h 38 min
  38. Bit rate mode                            : Constant
  39. Bit rate                                 : 384 kb/s
  40. Channel(s)                               : 6 channels
  41. Channel layout                           : L R C LFE Ls Rs
  42. Sampling rate                            : 48.0 kHz
  43. Frame rate                               : 31.250 FPS (1536 SPF)
  44. Compression mode                         : Lossy
  45. Stream size                              : 269 MiB (8%)
  46. Title                                    : The.Burnt.Orange.Heresy.2019.1080p.WEB-DL.DD5.1.H264-FGT
  47. Language                                 : English
  48. Service kind                             : Complete Main
  49. Default                                  : Yes
  50. Forced                                   : No
  51. Text
  52. ID                                       : 3
  53. Format                                   : UTF-8
  54. Codec ID                                 : S_TEXT/UTF8
  55. Codec ID/Info                            : UTF-8 Plain Text
  56. Duration                                 : 1 h 30 min
  57. Bit rate                                 : 56 b/s
  58. Count of elements                        : 1055
  59. Stream size                              : 37.2 KiB (0%)
  60. Language                                 : English
  61. Default                                  : Yes
  62. Forced                                   : No
  63. Menu
  64. 00:00:00.000                             : en:1
  65. 00:06:02.612                             : en:2
  66. 00:12:06.100                             : en:3
  67. 00:18:06.585                             : en:4
  68. 00:25:07.172                             : en:5
  69. 00:30:16.523                             : en:6
  70. 00:38:59.836                             : en:7
  71. 00:44:16.736                             : en:8
  72. 00:49:02.480                             : en:9
  73. 00:55:15.603                             : en:10
  74. 01:00:53.773                             : en:11
  75. 01:06:24.227                             : en:12
  76. 01:13:18.182                             : en:13
  77. 01:20:06.798                             : en:14
  78. 01:25:38.004                             : en:15
  79. 01:31:55.381                             : en:16
复制代码






                                       
                                       

                                       
                                       
                                       




回复

使用道具 举报

懒得打字嘛,点击右侧快捷回复 【右侧内容,后台自定义】
您需要登录后才可以回帖 登录 | 立即加入

本版积分规则

Archiver|小黑屋| 蓝光电影网 |网站地图

Copyright © 2021 Comsenz Inc. Powered by 蓝光电影网

蓝光电影网

本站内容由用户自主分享和转载自互联网,转载目的在于传递更多信息,并不代表本网赞同其观点和对其真实性负责。

如有侵权、违反国家法律政策行为,请联系我们,我们会第一时间及时清除和处理!

举报反馈邮箱:[email protected]

快速回复 返回顶部 返回列表