找回密码

蓝光电影网

查看: 12|回复: 0

[剧情] 永恒美人 Eternal.Beauty.2019.1080p.WEB-DL.DD5.1.H264-FGT 3.68GB

[复制链接]
蓝光币
382
发表于 2021-8-20 00:53:51 | 显示全部楼层 |阅读模式


◎译  名 永久美人/In My Oils/永久之美
◎片  名 Eternal Beauty
◎年  代 2019
◎产  地 英国
◎类  别 剧情 / 笑剧 / 恋爱
◎语  言 英语
◎上映日期 2019-10-08(伦敦电影节) / 2020-10-02(英国)
◎IMDb评分  7.2/10 from 132 users
◎IMDb链接  https://www.imdb.com/title/tt5362940/
◎豆瓣评分 /10 from 0 users
◎豆瓣链接 https://movie.douban.com/subject/27614362/
◎片  长 95分钟
◎导  演 克雷格·罗伯兹 Craig Roberts
◎编  剧 克雷格·罗伯兹 Craig Roberts
◎主  演 大卫·休里斯 David Thewlis
       莎莉·霍金斯 Sally Hawkins
       比莉·派佩 Billie Piper
       佩内洛普·威尔顿 Penelope Wilton
       莫菲德·克拉克 Morfydd Clark
       罗伯特·普格 Robert Pugh
       爱丽丝·洛维 Alice Lowe
       罗伯特·阿拉马约 Robert Aramayo
       阿什利·马克圭尔 Ashley McGuire
       芭妮塔·桑德胡 Banita Sandhu
       保罗·希尔顿 Paul Hilton
       Boyd Clack
◎标  签 莎莉·霍金斯 | 英国 | 2019 | SallyHawkins | 英国电影 | 恋爱 | 剧情 | 电影
◎简  介


  故事聚焦于一个在自己精神天下中挣扎的、孤独的女人身上。简在婚礼节式上被未婚夫抛弃后,20年来饱受精神割裂的熬煎,在紊乱的精神状态下,她的感情关系(不管是实在的还是设想的)和家庭关系冲突重重。在医院看病的一天,简碰见了迈克——一个失利的、丢失的音乐家。两人起头了一段黑色笑剧性的浪漫故事,在这当中,情况发生了变化。
◎获奖情况
  第22届英国自力电影奖 ?(2019)
  最好女配角(提名) 莎莉·霍金斯
  1. Video
  2. ID                                       : 1
  3. Format                                   : AVC
  4. Format/Info                              : Advanced Video Codec
  5. Format profile                           : [email protected]
  6. Format settings                          : CABAC / 4 Ref Frames
  7. Format settings, CABAC                   : Yes
  8. Format settings, Reference frames        : 4 frames
  9. Codec ID                                 : V_MPEG4/ISO/AVC
  10. Duration                                 : 1 h 34 min
  11. Bit rate                                 : 5 207 kb/s
  12. Width                                    : 1 920 pixels
  13. Height                                   : 1 030 pixels
  14. Display aspect ratio                     : 1.85:1
  15. Frame rate mode                          : Constant
  16. Frame rate                               : 23.976 FPS
  17. Color space                              : YUV
  18. Chroma subsampling                       : 4:2:0
  19. Bit depth                                : 8 bits
  20. Scan type                                : Progressive
  21. Bits/(Pixel*Frame)                       : 0.110
  22. Stream size                              : 3.42 GiB (93%)
  23. Title                                    : Eternal.Beauty.2019.1080p.WEB-DL.DD5.1.H264-FGT
  24. Language                                 : English
  25. Default                                  : Yes
  26. Forced                                   : No
  27. Color range                              : Limited
  28. Color primaries                          : BT.709
  29. Transfer characteristics                 : BT.709
  30. Matrix coefficients                      : BT.709
  31. Audio
  32. ID                                       : 2
  33. Format                                   : AC-3
  34. Format/Info                              : Audio Coding 3
  35. Commercial name                          : Dolby Digital
  36. Codec ID                                 : A_AC3
  37. Duration                                 : 1 h 34 min
  38. Bit rate mode                            : Constant
  39. Bit rate                                 : 384 kb/s
  40. Channel(s)                               : 6 channels
  41. Channel layout                           : L R C LFE Ls Rs
  42. Sampling rate                            : 48.0 kHz
  43. Frame rate                               : 31.250 FPS (1536 SPF)
  44. Compression mode                         : Lossy
  45. Stream size                              : 258 MiB (7%)
  46. Title                                    : Eternal.Beauty.2019.1080p.WEB-DL.DD5.1.H264-FGT
  47. Language                                 : English
  48. Service kind                             : Complete Main
  49. Default                                  : Yes
  50. Forced                                   : No
  51. Text
  52. ID                                       : 3
  53. Format                                   : UTF-8
  54. Codec ID                                 : S_TEXT/UTF8
  55. Codec ID/Info                            : UTF-8 Plain Text
  56. Duration                                 : 1 h 29 min
  57. Bit rate                                 : 41 b/s
  58. Count of elements                        : 938
  59. Stream size                              : 26.8 KiB (0%)
  60. Language                                 : English
  61. Default                                  : Yes
  62. Forced                                   : No
  63. Menu
  64. 00:00:00.000                             : en:1
  65. 00:05:53.144                             : en:2
  66. 00:11:38.239                             : en:3
  67. 00:17:30.340                             : en:4
  68. 00:23:27.697                             : en:5
  69. 00:29:32.894                             : en:6
  70. 00:36:24.305                             : en:7
  71. 00:42:54.027                             : en:8
  72. 00:47:37.518                             : en:9
  73. 00:51:40.719                             : en:10
  74. 00:58:07.188                             : en:11
  75. 01:04:30.320                             : en:12
  76. 01:09:56.396                             : en:13
  77. 01:14:38.885                             : en:14
  78. 01:20:10.007                             : en:15
  79. 01:26:56.412                             : en:16
复制代码





                                       
                                       

                                       
                                       
                                       




回复

使用道具 举报

懒得打字嘛,点击右侧快捷回复 【右侧内容,后台自定义】
您需要登录后才可以回帖 登录 | 立即加入

本版积分规则

Archiver|小黑屋| 蓝光电影网 |网站地图

Copyright © 2021 Comsenz Inc. Powered by 蓝光电影网

蓝光电影网

本站内容由用户自主分享和转载自互联网,转载目的在于传递更多信息,并不代表本网赞同其观点和对其真实性负责。

如有侵权、违反国家法律政策行为,请联系我们,我们会第一时间及时清除和处理!

举报反馈邮箱:[email protected]

快速回复 返回顶部 返回列表