找回密码

蓝光电影网

查看: 11|回复: 0

[剧情] 铁血证据/冷血人 Jesse.Stone.Stone.Cold.2005.1080p.AMZN.WEBRip.DDP5.1.x264-TrollHD 8.93GB

[复制链接]
蓝光币
426
发表于 2021-8-20 00:53:56 | 显示全部楼层 |阅读模式


◎译  名 铁血证据/冷血人
◎片  名 Stone Cold
◎年  代 2005
◎产  地 美国
◎类  别 剧情 / 犯罪 / 悬念
◎上映日期 2005-02-20
◎IMDb评分  7.2/10 from 5383 users
◎IMDb链接  https://www.imdb.com/title/tt0431420/
◎豆瓣评分 6.9/10 from 55 users
◎豆瓣链接 https://movie.douban.com/subject/1420093/
◎导  演 罗伯特·哈蒙 Robert Harmon
◎编  剧 罗伯特·B·帕克 Robert B. Parker / 约翰·法沙诺 John Fasano / 迈克尔·布兰德曼 Michael Brandman
◎主  演 Michael Ray Fox
       Kohl Sudduth
       肖恩·罗伯茨 Shawn Roberts
       米密·罗杰斯 Mimi Rogers
       史蒂芬·麦克哈蒂 Stephen McHattie
       阿丽西丝·泽纳 Alexis Dziena
       辛迪·桑普森 Cindy Sampson
       维奥拉·戴维斯 Viola Davis
       简·亚当斯 Jane Adams
       亚历克斯·豪斯 Alex House
       Joseph Rutten
       波莉·香农 Polly Shannon
       瑞格·罗杰斯 Reg Rogers
       汤姆·塞立克 Tom Selleck
◎标  签 美国 | 犯罪 | 悬疑 | 剧情 | 美国电影 | 罗伯特·哈蒙 | 欧美 | DVD
◎简  介


  前洛杉矶高级凶案组捕快Jesse Stone,被派到缅因州靠近海岸的小镇作警长,过着相对简单落拓的生活。在犯罪率低下的天堂镇,Stone尽力想靠醉酒、避开刻薄的前妻,和新的年轻女友连结平安间隔,来削减生活中的烦杂。可是在当一个死尸冲到海岸和一个高中门生供认自己被不止一个,而是几个攻击者强奸后,Stone和天堂的居民被堕入紊乱中。操纵在大城市作侦察的经历,Stone必须在安静的小镇变成连环杀手游乐场前找出罪犯。
  1. Video
  2. ID                                       : 1
  3. Format                                   : AVC
  4. Format/Info                              : Advanced Video Codec
  5. Format profile                           : [email protected]
  6. Format settings                          : CABAC / 4 Ref Frames
  7. Format settings, CABAC                   : Yes
  8. Format settings, Reference frames        : 4 frames
  9. Codec ID                                 : V_MPEG4/ISO/AVC
  10. Duration                                 : 1 h 26 min
  11. Bit rate mode                            : Variable
  12. Bit rate                                 : 14.2 Mb/s
  13. Maximum bit rate                         : 15.0 Mb/s
  14. Width                                    : 1 920 pixels
  15. Height                                   : 1 080 pixels
  16. Display aspect ratio                     : 16:9
  17. Frame rate mode                          : Constant
  18. Frame rate                               : 23.976 (24000/1001/189150) FPS
  19. Color space                              : YUV
  20. Chroma subsampling                       : 4:2:0
  21. Bit depth                                : 8 bits
  22. Scan type                                : Progressive
  23. Bits/(Pixel*Frame)                       : 0.286
  24. Stream size                              : 8.55 GiB (96%)
  25. Default                                  : Yes
  26. Forced                                   : No
  27. Color range                              : Limited
  28. Color primaries                          : BT.709
  29. Transfer characteristics                 : BT.709
  30. Matrix coefficients                      : BT.709
  31. Audio
  32. ID                                       : 2
  33. Format                                   : E-AC-3
  34. Format/Info                              : Enhanced AC-3
  35. Commercial name                          : Dolby Digital Plus
  36. Codec ID                                 : A_EAC3
  37. Duration                                 : 1 h 26 min
  38. Bit rate mode                            : Constant
  39. Bit rate                                 : 640 kb/s
  40. Channel(s)                               : 6 channels
  41. Channel layout                           : L R C LFE Ls Rs
  42. Sampling rate                            : 48.0 kHz
  43. Frame rate                               : 31.250 FPS (1536 SPF)
  44. Compression mode                         : Lossy
  45. Stream size                              : 394 MiB (4%)
  46. Language                                 : English
  47. Service kind                             : Complete Main
  48. Default                                  : Yes
  49. Forced                                   : No
  50. Text
  51. ID                                       : 3
  52. Format                                   : UTF-8
  53. Codec ID                                 : S_TEXT/UTF8
  54. Codec ID/Info                            : UTF-8 Plain Text
  55. Duration                                 : 1 h 24 min
  56. Bit rate                                 : 62 b/s
  57. Count of elements                        : 1401
  58. Stream size                              : 38.3 KiB (0%)
  59. Language                                 : English
  60. Default                                  : No
  61. Forced                                   : No
  62. Menu
  63. 00:00:00.000                             : en:Luther makes a discovery, Opening Credits
  64. 00:03:36.000                             : en:Stone investigates the crime scene before heading home
  65. 00:07:21.000                             : en:Stone goes over the case with Luther and Anthony; Stone\'s office
  66. 00:11:33.000                             : en:Stone and Abby discuss their relationship and the Lincolns watch a video
  67. 00:15:19.000                             : en:Dr. Perkins explains his findings to Stone and Luther; Morgue
  68. 00:16:39.000                             : en:A group of boys threaten Candace
  69. 00:18:37.000                             : en:Andrew shows Brianna a video he recorded; Lincoln house
  70. 00:19:53.000                             : en:Abby gives Stone some advice before he answers a call
  71. 00:22:54.000                             : en:Stone gives Candace a ride and offers help
  72. 00:26:16.000                             : en:Stone discusses the case with Captain Healy; Stone\'s office
  73. 00:28:37.000                             : en:Comden and his associates question Stone; Press room
  74. 00:30:34.000                             : en:Abby advises Stone to cooperate and asks him about the killings
  75. 00:33:58.000                             : en:Jesse speaks with a murder witness
  76. 00:35:42.000                             : en:Molly finds a reason to bust Bo; Restroom
  77. 00:37:06.000                             : en:Stone and Luther question the Lincolns; Lincoln house
  78. 00:40:38.000                             : en:Stone shares his suspicions with Luther; Riverbank
  79. 00:42:15.000                             : en:Stone questions Bo; Stone\'s office
  80. 00:45:47.000                             : en:Stone discusses the case with Molly before going out on a stakeout
  81. 00:49:08.000                             : en:Stone interrogates Kevin; Stone\'s office
  82. 00:50:39.000                             : en:Stone talks to Captain Healy before welcoming a visitor; Stone\'s house
  83. 00:53:47.000                             : en:Stone\'s meeting with Candice and Chuck is interrupted; Stone\'s office
  84. 00:55:53.000                             : en:Stone talks to Jenn while Abby tries to call him
  85. 00:57:05.000                             : en:Stone receives shocking news
  86. 01:00:27.000                             : en:Stone and Rita discuss the rape case with D.A. Reagan; Conference room
  87. 01:01:40.000                             : en:Luther suggests getting a search warrant; Police station
  88. 01:03:12.000                             : en:Rita and Stone have a drink together; Restaurant
  89. 01:05:34.000                             : en:Healy reports the ballistics test results to Stone; Riverbank
  90. 01:07:54.000                             : en:Stone returns the gun to the Lincolns; Lincoln house
  91. 01:11:51.000                             : en:Stone asks Candace about school; House exterior
  92. 01:14:10.000                             : en:Molly and Stone discuss the killers\' motive
  93. 01:16:54.000                             : en:Stone arranges a meeting with the Lincolns
  94. 01:19:31.000                             : en:Stone tails the Lincolns
  95. 01:23:00.000                             : en:Stone returns home and reflects
  96. 01:25:11.000                             : en:End Credits
复制代码





                                       
                                       

                                       
                                       
                                       




回复

使用道具 举报

懒得打字嘛,点击右侧快捷回复 【右侧内容,后台自定义】
您需要登录后才可以回帖 登录 | 立即加入

本版积分规则

Archiver|小黑屋| 蓝光电影网 |网站地图

Copyright © 2021 Comsenz Inc. Powered by 蓝光电影网

蓝光电影网

本站内容由用户自主分享和转载自互联网,转载目的在于传递更多信息,并不代表本网赞同其观点和对其真实性负责。

如有侵权、违反国家法律政策行为,请联系我们,我们会第一时间及时清除和处理!

举报反馈邮箱:[email protected]

快速回复 返回顶部 返回列表