找回密码

蓝光电影网

查看: 16|回复: 0

[剧情] 流浪歌手/青春逍遥游 Roustabout.1964.1080p.AMZN.WEBRip.DDP2.0.x264-alfaHD 7.22GB

[复制链接]
蓝光币
426
发表于 2021-8-20 00:54:00 | 显示全部楼层 |阅读模式


◎译  名 流浪歌手/青春清闲游
◎片  名 Roustabout
◎年  代 1964
◎产  地 美国
◎类  别 剧情 / 恋爱 / 音乐 / 歌舞
◎语  言 英语
◎上映日期 1964-11-11
◎IMDb评分  6.1/10 from 2494 users
◎IMDb链接  https://www.imdb.com/title/tt0058534/
◎豆瓣评分 /10 from 0 users
◎豆瓣链接 https://movie.douban.com/subject/3422920/
◎片  长 101 分钟
◎导  演 约翰·里奇 John Rich
◎编  剧 安东尼·劳伦斯 Anthony Lawrence / 艾伦·韦斯 Allan Weiss / Anthony Lawrence
◎主  演 埃尔维斯·普雷斯利 Elvis Presley
       芭芭拉·斯坦威克 Barbara Stanwyck
       Sue Ane Langdon
       Buddy Lewis
       Kent McCord
       Eddie Marr
       Jerry James
       蓝斯·勒高勒 Lance LeGault
       Dean Moray
       Christopher Riordan
       Ray Kellogg
       Glenn R. Wilder
       Jesse Wayne
       伯特史蒂文斯 Bert Stevens
       Joan Staley
       K.L. Smith
       Katie Sweet
       琳达兰德 Linda Rand
       肯纳G.肯普 Kenner G. Kemp
       Theodore Lehmann
       Norman Grabowski
       比利·巴蒂 Billy Barty
       利夫·埃里克森 Leif Erickson
       理查德·基尔 Richard Kiel
       拉蔻儿·薇芝 Raquel Welch
       乔伊·哈姆恩 Joy Harmon
       贝弗莉·亚当斯 Beverly Adams
       特瑞·加尔 Teri Garr
       迈克·马奥尼 Mike Mahoney
       霍华德·乔斯林 Howard Joslin
       杰克·艾伯森 Jack Albertson
       琼·弗里曼 Joan Freeman
       Kenneth Becker
       Lynn Borden
       玛丽亚娜·希尔 Marianna Hill
       Chester Hayes
       戴布思·格里尔 Dabbs Greer
       乔尔·弗吕莱恩 Joel Fluellen
       Linda Foster
       珍妮杜罗 Jane Dulo
       Joseph Forte
       斯蒂夫·布罗狄 Steve Brodie
       Steve Condit
       Roger Creed
       Pat Buttram
       欧文·布什 Owen Bush
◎标  签 美国 | 歌舞 | BarbaraStanwyck | Paramount | Elvis_Presley | ElvisPresley | Barbara_Stanwyck | 1960s
◎简  介


  Charlie Rogers是个横冲直撞的酒吧驻唱歌手,由于脱手经验温文尔雅的客人被老板解雇,骑着摩托车起头了流浪歌手的生活。路上,他偶遇了闻风而动的嘉韶华老板Maggie和她的两个雇员——少女Cathy和她暴脾性的爸爸Joe。Charlie对Cathy一见钟情,但Joe却不满他轻佻的态度,和Charlie抵触不竭。Charlie在嘉韶华谋了份差事,而由于他出色的表演,嘉韶华一时候成为当地热门,旅客络绎不停。而和嘉韶华员工相处的进程中,Charlie也从毛头小子走向成熟。有一次,两个故意刁难Cathy的客人丢了钱包,栽赃是Joe偷拿的,Joe抱屈入狱。当天早晨,Charlie捡到了阿谁钱包,却由于没实时归还又被Cathy误解。Charlie只好挑选分开嘉韶华,投靠了他们的合作对手。眼看着Maggie的嘉韶华行将开张,Charlie该若何决定?
  1. Video
  2. ID                                       : 1
  3. Format                                   : AVC
  4. Format/Info                              : Advanced Video Codec
  5. Format profile                           : [email protected]
  6. Format settings                          : CABAC / 4 Ref Frames
  7. Format settings, CABAC                   : Yes
  8. Format settings, Reference frames        : 4 frames
  9. Format settings, GOP                     : M=4, N=48
  10. Codec ID                                 : V_MPEG4/ISO/AVC
  11. Duration                                 : 1 h 41 min
  12. Bit rate mode                            : Constant
  13. Bit rate                                 : 10 000 kb/s
  14. Width                                    : 1 920 pixels
  15. Height                                   : 1 080 pixels
  16. Display aspect ratio                     : 16:9
  17. Frame rate mode                          : Constant
  18. Frame rate                               : 23.976 (24000/1001/189150) FPS
  19. Color space                              : YUV
  20. Chroma subsampling                       : 4:2:0
  21. Bit depth                                : 8 bits
  22. Scan type                                : Progressive
  23. Bits/(Pixel*Frame)                       : 0.201
  24. Stream size                              : 7.06 GiB (98%)
  25. Language                                 : English
  26. Default                                  : Yes
  27. Forced                                   : No
  28. Color range                              : Limited
  29. Color primaries                          : BT.709
  30. Transfer characteristics                 : BT.709
  31. Matrix coefficients                      : BT.709
  32. Audio
  33. ID                                       : 2
  34. Format                                   : E-AC-3
  35. Format/Info                              : Enhanced AC-3
  36. Commercial name                          : Dolby Digital Plus
  37. Codec ID                                 : A_EAC3
  38. Duration                                 : 1 h 41 min
  39. Bit rate mode                            : Constant
  40. Bit rate                                 : 224 kb/s
  41. Channel(s)                               : 2 channels
  42. Channel layout                           : L R
  43. Sampling rate                            : 48.0 kHz
  44. Frame rate                               : 31.250 FPS (1536 SPF)
  45. Compression mode                         : Lossy
  46. Stream size                              : 163 MiB (2%)
  47. Language                                 : English
  48. Service kind                             : Complete Main
  49. Default                                  : Yes
  50. Forced                                   : No
  51. Text #1
  52. ID                                       : 3
  53. Format                                   : UTF-8
  54. Codec ID                                 : S_TEXT/UTF8
  55. Codec ID/Info                            : UTF-8 Plain Text
  56. Duration                                 : 1 h 40 min
  57. Bit rate                                 : 84 b/s
  58. Count of elements                        : 1985
  59. Stream size                              : 62.4 KiB (0%)
  60. Language                                 : English
  61. Default                                  : No
  62. Forced                                   : No
  63. Text #2
  64. ID                                       : 4
  65. Format                                   : UTF-8
  66. Codec ID                                 : S_TEXT/UTF8
  67. Codec ID/Info                            : UTF-8 Plain Text
  68. Duration                                 : 1 h 40 min
  69. Bit rate                                 : 84 b/s
  70. Count of elements                        : 1985
  71. Stream size                              : 62.4 KiB (0%)
  72. Title                                    : SDH
  73. Language                                 : English
  74. Default                                  : No
  75. Forced                                   : No
复制代码






                                       
                                       

                                       
                                       
                                       




回复

使用道具 举报

懒得打字嘛,点击右侧快捷回复 【右侧内容,后台自定义】
您需要登录后才可以回帖 登录 | 立即加入

本版积分规则

Archiver|小黑屋| 蓝光电影网 |网站地图

Copyright © 2021 Comsenz Inc. Powered by 蓝光电影网

蓝光电影网

本站内容由用户自主分享和转载自互联网,转载目的在于传递更多信息,并不代表本网赞同其观点和对其真实性负责。

如有侵权、违反国家法律政策行为,请联系我们,我们会第一时间及时清除和处理!

举报反馈邮箱:[email protected]

快速回复 返回顶部 返回列表