找回密码

蓝光电影网

查看: 13|回复: 0

[剧情] 杰西警探犯罪档案:无悔追踪 Jesse.Stone.No.Remorse.2010.1080p.AMZN.WEBRip.DDP5.1.x264-TrollHD 8.93GB

[复制链接]
蓝光币
426
发表于 2021-8-20 00:54:05 | 显示全部楼层 |阅读模式


◎译  名 杰西警探犯罪档案:无悔追踪
◎片  名 Jesse Stone: No Remorse
◎年  代 2010
◎产  地 美国
◎类  别 剧情 / 犯罪
◎语  言 English
◎上映日期 2010-05-09
◎IMDb评分  7.3/10 from 2880 users
◎IMDb链接  https://www.imdb.com/title/tt1315216/
◎豆瓣评分 6.2/10 from 51 users
◎豆瓣链接 https://movie.douban.com/subject/3292053/
◎片  长 87分钟
◎导  演 罗伯特·哈蒙 Robert Harmon
◎编  剧 汤姆·塞立克 Tom Selleck / 迈克尔·布兰德曼 Michael Brandman
◎主  演 Kevin Kumar-Misir
       Shawn Doucette
       John Shurko
       Michael Ray Fox
       克里丝塔·艾伦 Krista Allen
       汤姆·塞立克 Tom Selleck
       史蒂芬·麦克哈蒂 Stephen McHattie
       绍尔·鲁宾内克 Saul Rubinek
       梅·惠特曼 Mae Whitman
       威廉姆·德瓦内 William Devane
       凯西·贝克 Kathy Baker
       Stephen Coats
       Kohl Sudduth
       威廉姆·赛德勒 William Sadler
◎标  签 犯罪 | 悬疑 | 2010 | 美国 | 侦察 | CBS | 剧情 | 合作
◎简  介


  罗勃.派克(Robert B. Parker)的作品改编, 杰西警探犯罪档案系列故事第六集. 《杰西警探》系列一向重视於侦察类剧集最根基的破案手法。著名男星汤姆谢立克在剧中饰演的配角杰西警探, 曩昔是纽约市的一位差人,但由于酗酒而被下放到麻州的天堂镇担任警长, 不外, 在天堂镇的日子永久不像这个镇的名字一样如天堂般安好。
  1. Video
  2. ID                                       : 1
  3. Format                                   : AVC
  4. Format/Info                              : Advanced Video Codec
  5. Format profile                           : [email protected]
  6. Format settings                          : CABAC / 4 Ref Frames
  7. Format settings, CABAC                   : Yes
  8. Format settings, Reference frames        : 4 frames
  9. Codec ID                                 : V_MPEG4/ISO/AVC
  10. Duration                                 : 1 h 25 min
  11. Bit rate mode                            : Variable
  12. Bit rate                                 : 14.3 Mb/s
  13. Maximum bit rate                         : 15.0 Mb/s
  14. Width                                    : 1 920 pixels
  15. Height                                   : 1 080 pixels
  16. Display aspect ratio                     : 16:9
  17. Frame rate mode                          : Constant
  18. Frame rate                               : 23.976 (24000/1001/189150) FPS
  19. Color space                              : YUV
  20. Chroma subsampling                       : 4:2:0
  21. Bit depth                                : 8 bits
  22. Scan type                                : Progressive
  23. Bits/(Pixel*Frame)                       : 0.287
  24. Stream size                              : 8.55 GiB (96%)
  25. Writing library                          : x264 core 148 r2623 d5b2374
  26. Encoding settings                        : cabac=1 / ref=4 / deblock=1:-1:-1 / analyse=0x3:0x133 / me=umh / subme=9 / psy=1 / psy_rd=1.00:0.15 / mixed_ref=1 / me_range=24 / chroma_me=1 / trellis=2 / 8x8dct=1 / cqm=0 / deadzone=21,11 / fast_pskip=1 / chroma_qp_offset=-3 / threads=34 / lookahead_threads=5 / sliced_threads=0 / nr=150 / decimate=1 / interlaced=0 / bluray_compat=0 / constrained_intra=0 / bframes=8 / b_pyramid=2 / b_adapt=2 / b_bias=0 / direct=3 / weightb=1 / open_gop=0 / weightp=2 / keyint=120 / keyint_min=61 / scenecut=0 / intra_refresh=0 / rc_lookahead=120 / rc=crf / mbtree=1 / crf=18.0 / qcomp=0.60 / qpmin=0 / qpmax=69 / qpstep=4 / vbv_maxrate=15000 / vbv_bufsize=31250 / crf_max=0.0 / nal_hrd=vbr / filler=0 / ip_ratio=1.40 / aq=3:1.00
  27. Default                                  : Yes
  28. Forced                                   : No
  29. Color range                              : Limited
  30. Color primaries                          : BT.709
  31. Transfer characteristics                 : BT.709
  32. Matrix coefficients                      : BT.709
  33. Audio
  34. ID                                       : 2
  35. Format                                   : E-AC-3
  36. Format/Info                              : Enhanced AC-3
  37. Commercial name                          : Dolby Digital Plus
  38. Codec ID                                 : A_EAC3
  39. Duration                                 : 1 h 25 min
  40. Bit rate mode                            : Constant
  41. Bit rate                                 : 640 kb/s
  42. Channel(s)                               : 6 channels
  43. Channel layout                           : L R C LFE Ls Rs
  44. Sampling rate                            : 48.0 kHz
  45. Frame rate                               : 31.250 FPS (1536 SPF)
  46. Compression mode                         : Lossy
  47. Stream size                              : 392 MiB (4%)
  48. Language                                 : English
  49. Service kind                             : Complete Main
  50. Default                                  : Yes
  51. Forced                                   : No
  52. Text
  53. ID                                       : 3
  54. Format                                   : UTF-8
  55. Codec ID                                 : S_TEXT/UTF8
  56. Codec ID/Info                            : UTF-8 Plain Text
  57. Duration                                 : 1 h 23 min
  58. Bit rate                                 : 57 b/s
  59. Count of elements                        : 1206
  60. Stream size                              : 35.5 KiB (0%)
  61. Language                                 : English
  62. Default                                  : No
  63. Forced                                   : No
复制代码






                                       
                                       

                                       
                                       
                                       




回复

使用道具 举报

懒得打字嘛,点击右侧快捷回复 【右侧内容,后台自定义】
您需要登录后才可以回帖 登录 | 立即加入

本版积分规则

Archiver|小黑屋| 蓝光电影网 |网站地图

Copyright © 2021 Comsenz Inc. Powered by 蓝光电影网

蓝光电影网

本站内容由用户自主分享和转载自互联网,转载目的在于传递更多信息,并不代表本网赞同其观点和对其真实性负责。

如有侵权、违反国家法律政策行为,请联系我们,我们会第一时间及时清除和处理!

举报反馈邮箱:[email protected]

快速回复 返回顶部 返回列表