找回密码

蓝光电影网

查看: 14|回复: 0

[剧情] 杰西警探:翻天覆地的变化 Jesse.Stone.Sea.Change.2007.1080p.AMZN.WEBRip.DDP5.1.x264-TrollHD 9.39GB

[复制链接]
蓝光币
426
发表于 2021-8-20 00:54:10 | 显示全部楼层 |阅读模式


◎译  名 杰西警探:天翻地覆的变化
◎片  名 Jesse Stone: Sea Change
◎年  代 2007
◎产  地 美国
◎类  别 剧情 / 犯罪
◎语  言 英语
◎上映日期 2007-05-22
◎IMDb评分  7.2/10 from 3245 users
◎IMDb链接  https://www.imdb.com/title/tt0905345/
◎豆瓣评分 /10 from 0 users
◎豆瓣链接 https://movie.douban.com/subject/2070725/
◎片  长 88分钟
◎导  演 罗伯特·哈蒙 Robert Harmon
◎编  剧 罗伯特·B·帕克 Robert B. Parker / Ronni Kern
◎主  演 詹姆斯·普雷斯顿·罗杰斯 James Preston Rogers
       Kohl Sudduth
       詹姆斯·盖蒙 James Gammon
       汤姆·塞立克 Tom Selleck
       史蒂芬·麦克哈蒂 Stephen McHattie
       绍尔·鲁宾内克 Saul Rubinek
       米卡·波瑞姆 Mika Boorem
       维奥拉·戴维斯 Viola Davis
       丽贝卡·彼得根 Rebecca Pidgeon
       肖恩·杨 Sean Young
       尼格尔·本内特 Nigel Bennett
       威廉姆·德瓦内 William Devane
       凯西·贝克 Kathy Baker
       威廉姆·赛德勒 William Sadler
◎标  签 杰西警探 | range_shooters | js | TV
◎简  介


  暂无相关剧情先容
  1. Video
  2. ID                                       : 1
  3. Format                                   : AVC
  4. Format/Info                              : Advanced Video Codec
  5. Format profile                           : [email protected]
  6. Format settings                          : CABAC / 4 Ref Frames
  7. Format settings, CABAC                   : Yes
  8. Format settings, Reference frames        : 4 frames
  9. Codec ID                                 : V_MPEG4/ISO/AVC
  10. Duration                                 : 1 h 28 min
  11. Bit rate mode                            : Variable
  12. Bit rate                                 : 14.5 Mb/s
  13. Maximum bit rate                         : 15.0 Mb/s
  14. Width                                    : 1 920 pixels
  15. Height                                   : 1 080 pixels
  16. Display aspect ratio                     : 16:9
  17. Frame rate mode                          : Constant
  18. Frame rate                               : 23.976 (24000/1001/189150) FPS
  19. Color space                              : YUV
  20. Chroma subsampling                       : 4:2:0
  21. Bit depth                                : 8 bits
  22. Scan type                                : Progressive
  23. Bits/(Pixel*Frame)                       : 0.293
  24. Stream size                              : 8.99 GiB (96%)
  25. Writing library                          : x264 core 148 r2623 d5b2374
  26. Encoding settings                        : cabac=1 / ref=4 / deblock=1:-1:-1 / analyse=0x3:0x133 / me=umh / subme=9 / psy=1 / psy_rd=1.00:0.15 / mixed_ref=1 / me_range=24 / chroma_me=1 / trellis=2 / 8x8dct=1 / cqm=0 / deadzone=21,11 / fast_pskip=1 / chroma_qp_offset=-3 / threads=34 / lookahead_threads=5 / sliced_threads=0 / nr=150 / decimate=1 / interlaced=0 / bluray_compat=0 / constrained_intra=0 / bframes=8 / b_pyramid=2 / b_adapt=2 / b_bias=0 / direct=3 / weightb=1 / open_gop=0 / weightp=2 / keyint=120 / keyint_min=61 / scenecut=0 / intra_refresh=0 / rc_lookahead=120 / rc=crf / mbtree=1 / crf=18.0 / qcomp=0.60 / qpmin=0 / qpmax=69 / qpstep=4 / vbv_maxrate=15000 / vbv_bufsize=31250 / crf_max=0.0 / nal_hrd=vbr / filler=0 / ip_ratio=1.40 / aq=3:1.00
  27. Default                                  : Yes
  28. Forced                                   : No
  29. Color range                              : Limited
  30. Color primaries                          : BT.709
  31. Transfer characteristics                 : BT.709
  32. Matrix coefficients                      : BT.709
  33. Audio
  34. ID                                       : 2
  35. Format                                   : E-AC-3
  36. Format/Info                              : Enhanced AC-3
  37. Commercial name                          : Dolby Digital Plus
  38. Codec ID                                 : A_EAC3
  39. Duration                                 : 1 h 28 min
  40. Bit rate mode                            : Constant
  41. Bit rate                                 : 640 kb/s
  42. Channel(s)                               : 6 channels
  43. Channel layout                           : L R C LFE Ls Rs
  44. Sampling rate                            : 48.0 kHz
  45. Frame rate                               : 31.250 FPS (1536 SPF)
  46. Compression mode                         : Lossy
  47. Stream size                              : 405 MiB (4%)
  48. Language                                 : English
  49. Service kind                             : Complete Main
  50. Default                                  : Yes
  51. Forced                                   : No
  52. Text
  53. ID                                       : 3
  54. Format                                   : UTF-8
  55. Codec ID                                 : S_TEXT/UTF8
  56. Codec ID/Info                            : UTF-8 Plain Text
  57. Duration                                 : 1 h 24 min
  58. Bit rate                                 : 61 b/s
  59. Count of elements                        : 1338
  60. Stream size                              : 37.9 KiB (0%)
  61. Language                                 : English
  62. Default                                  : No
  63. Forced                                   : No
  64. Menu
  65. 00:00:00.000                             : en:Jesse speaks to his ex-wife; Police department
  66. 00:02:31.000                             : en:Jess meets Hilda Evans; Town street
  67. 00:03:36.000                             : en:Jesse visits Suitcase; Hospital
  68. 00:05:21.000                             : en:A ship approaches land, Opening Credits
  69. 00:07:29.000                             : en:Jesse writes a parking ticket; Neighborhood
  70. 00:09:28.000                             : en:Jesse returns home; Jesse\'s home
  71. 00:11:41.000                             : en:Jesse calls Molly Crane
  72. 00:14:08.000                             : en:Jesse reluctantly starts his day
  73. 00:16:54.000                             : en:Jesse sees his psychiatrist; Dr. Dix\'s office
  74. 00:18:52.000                             : en:Jesse re-opens an unsolved case
  75. 00:20:28.000                             : en:A nurse gets a surprise; Hospital
  76. 00:20:47.000                             : en:Jesse digs up an old grave; Beach
  77. 00:22:10.000                             : en:Suitcase recovers after waking up; Hospital
  78. 00:23:06.000                             : en:Jesse and Rose examine the evidence; Police department
  79. 00:25:01.000                             : en:Jesse asks Dr. Dix a question; Dr. Dix\'s office
  80. 00:27:12.000                             : en:Jesse listens to a message from Jenn; Jesse\'s home
  81. 00:28:54.000                             : en:DeAngelo asks Rose a few questions; Police department
  82. 00:29:24.000                             : en:Jesse reports to the Town Council; Town Hall
  83. 00:30:26.000                             : en:Jesse asks Bob about his shooting skills; Dock
  84. 00:32:40.000                             : en:Jesse and Rose question Cathleen; Police department
  85. 00:36:05.000                             : en:Jesse visits the victim\'s sister; Leeann\'s house
  86. 00:40:05.000                             : en:Jesse meets up with Captain Healy; Bar
  87. 00:42:10.000                             : en:Jesse asks Sam a few more questions; Sam\'s shed
  88. 00:43:33.000                             : en:Jesse asks Hasty Hathaway about the robbery; Prison
  89. 00:46:04.000                             : en:Jesse quizzes Suitcase on the open cases; Police department
  90. 00:48:02.000                             : en:Jesse and Rose investigate The Lady Jane; Dock
  91. 00:49:32.000                             : en:Jesse pulls over a motorist; Town streets
  92. 00:51:31.000                             : en:Jesse gets more information from Hasty; Prison
  93. 00:52:55.000                             : en:Jesse questions Gino Fish; Gym
  94. 00:55:15.000                             : en:Sybil visits Jesse with a tip; Police department
  95. 00:59:21.000                             : en:Jesse calls Leeann
  96. 01:00:22.000                             : en:Jesse finds new evidence
  97. 01:01:29.000                             : en:Jesse gives Cathleen some advice; Motel
  98. 01:05:50.000                             : en:Jesse has another run-in with Terry; Diner
  99. 01:07:02.000                             : en:Jesse takes Leeann to dinner; Restaurant
  100. 01:09:55.000                             : en:Jesse and Leeann say goodnight; Outside restaurant
  101. 01:11:24.000                             : en:Jesse gets some stitches; Doctor\'s office
  102. 01:12:28.000                             : en:Rose and Jesse confront Harrison; Dock
  103. 01:13:25.000                             : en:Jesse returns to the office; Police department
  104. 01:13:48.000                             : en:Captain Healy updates Jesse
  105. 01:16:44.000                             : en:Jesse visits Leeann with his new information; Leeann\'s house
  106. 01:20:49.000                             : en:Jesse and Gino agree to be more honest; Gym
  107. 01:22:03.000                             : en:Jesse settles in for the night; Jesse\'s home
  108. 01:25:52.000                             : en:End Credits
复制代码






                                       
                                       

                                       
                                       
                                       




回复

使用道具 举报

懒得打字嘛,点击右侧快捷回复 【右侧内容,后台自定义】
您需要登录后才可以回帖 登录 | 立即加入

本版积分规则

Archiver|小黑屋| 蓝光电影网 |网站地图

Copyright © 2021 Comsenz Inc. Powered by 蓝光电影网

蓝光电影网

本站内容由用户自主分享和转载自互联网,转载目的在于传递更多信息,并不代表本网赞同其观点和对其真实性负责。

如有侵权、违反国家法律政策行为,请联系我们,我们会第一时间及时清除和处理!

举报反馈邮箱:[email protected]

快速回复 返回顶部 返回列表