找回密码

蓝光电影网

查看: 7|回复: 0

[剧情] 距你一英里 1.Mile.to.You.2017.1080p.PCOK.WEBRip.DDP5.1.x264-monkee 5.66GB

[复制链接]
蓝光币
382
发表于 2021-8-20 00:54:38 | 显示全部楼层 |阅读模式


◎译  名 距你一英里/Life at These Speeds
◎片  名 1 Mile to You
◎年  代 2017
◎产  地 美国
◎类  别 剧情 / 活动
◎语  言 英语
◎上映日期 2017-04-07(美国)
◎IMDb评分  6.3/10 from 2232 users
◎IMDb链接  https://www.imdb.com/title/tt2184233/
◎豆瓣评分 /10 from 0 users
◎豆瓣链接 https://movie.douban.com/subject/10469151/
◎导  演 利夫·蒂尔登 Leif Tilden
◎主  演 比利·克鲁德普 Billy Crudup
       梅兰妮·林斯基 Melanie Lynskey
       蒂姆·罗斯 Tim Roth
       丽亚娜·莱伯拉托 Liana Liberato
       斯戴芬妮·斯考特 Stefanie Scott
       格雷厄姆·罗杰斯 Graham Rogers
       托马斯·康奎尔 Thomas Cocquerel
       彼德·考约特 Peter Coyote
       尤尔·瓦斯克斯 Yul Vazquez
       道格拉斯·布斯 Douglas Booth
       艾米·缇加登 Aimee Teegarden
       安·海切 Anne Heche
◎标  签 美国 | 小说改编 | 青春 | 我生命的速度 | 人生 | 活动 | 安娜苏菲亚·罗伯 | 励志
◎简  介


  Based on the novel by Jeremy Jackson, story follows a rural teenager (Booth) who loses his best friends in a tragic accident and channels his survivor's guilt into an addiction to running, becoming  a high school track star.
  
  按照杰里米杰克逊的同名小说《我生命的速度》改编
  1. Video
  2. ID                                       : 1
  3. Format                                   : AVC
  4. Format/Info                              : Advanced Video Codec
  5. Format profile                           : [email protected]
  6. Format settings                          : CABAC / 4 Ref Frames
  7. Format settings, CABAC                   : Yes
  8. Format settings, Reference frames        : 4 frames
  9. Codec ID                                 : V_MPEG4/ISO/AVC
  10. Duration                                 : 1 h 44 min
  11. Bit rate                                 : 7 814 kb/s
  12. Width                                    : 1 920 pixels
  13. Height                                   : 1 080 pixels
  14. Display aspect ratio                     : 16:9
  15. Frame rate mode                          : Constant
  16. Frame rate                               : 23.976 (24000/1001/189150) FPS
  17. Color space                              : YUV
  18. Chroma subsampling                       : 4:2:0
  19. Bit depth                                : 8 bits
  20. Scan type                                : Progressive
  21. Bits/(Pixel*Frame)                       : 0.157
  22. Stream size                              : 5.52 GiB (97%)
  23. Writing library                          : x264 core 159 r2999 296494a
  24. Encoding settings                        : cabac=1 / ref=4 / deblock=1:0:0 / analyse=0x3:0x113 / me=umh / subme=7 / psy=1 / psy_rd=0.00:0.00 / mixed_ref=1 / me_range=16 / chroma_me=1 / trellis=1 / 8x8dct=1 / cqm=0 / deadzone=21,11 / fast_pskip=0 / chroma_qp_offset=0 / threads=34 / lookahead_threads=5 / sliced_threads=0 / nr=0 / decimate=1 / interlaced=0 / bluray_compat=0 / constrained_intra=0 / bframes=16 / b_pyramid=2 / b_adapt=1 / b_bias=0 / direct=1 / weightb=1 / open_gop=0 / weightp=2 / keyint=48 / keyint_min=25 / scenecut=0 / intra_refresh=0 / rc_lookahead=40 / rc=2pass / mbtree=1 / bitrate=7814 / ratetol=1.0 / qcomp=0.60 / qpmin=10 / qpmax=51 / qpstep=4 / cplxblur=20.0 / qblur=0.5 / vbv_maxrate=7830 / vbv_bufsize=7830 / nal_hrd=none / filler=0 / ip_ratio=1.41 / aq=1:1.00
  25. Default                                  : Yes
  26. Forced                                   : No
  27. Audio
  28. ID                                       : 2
  29. Format                                   : E-AC-3
  30. Format/Info                              : Enhanced AC-3
  31. Commercial name                          : Dolby Digital Plus
  32. Codec ID                                 : A_EAC3
  33. Duration                                 : 1 h 44 min
  34. Bit rate mode                            : Constant
  35. Bit rate                                 : 192 kb/s
  36. Channel(s)                               : 6 channels
  37. Channel layout                           : L R C LFE Ls Rs
  38. Sampling rate                            : 48.0 kHz
  39. Frame rate                               : 31.250 FPS (1536 SPF)
  40. Compression mode                         : Lossy
  41. Stream size                              : 144 MiB (2%)
  42. Language                                 : English
  43. Service kind                             : Complete Main
  44. Default                                  : Yes
  45. Forced                                   : No
  46. Text
  47. ID                                       : 3
  48. Format                                   : UTF-8
  49. Codec ID                                 : S_TEXT/UTF8
  50. Codec ID/Info                            : UTF-8 Plain Text
  51. Duration                                 : 1 h 44 min
  52. Bit rate                                 : 52 b/s
  53. Count of elements                        : 1212
  54. Stream size                              : 39.6 KiB (0%)
  55. Title                                    : SDH
  56. Language                                 : English
  57. Default                                  : No
  58. Forced                                   : No
  59. Menu
  60. 01:41:24.000                             : en:Credits
复制代码






                                       
                                       

                                       
                                       
                                       




回复

使用道具 举报

懒得打字嘛,点击右侧快捷回复 【右侧内容,后台自定义】
您需要登录后才可以回帖 登录 | 立即加入

本版积分规则

Archiver|小黑屋| 蓝光电影网 |网站地图

Copyright © 2021 Comsenz Inc. Powered by 蓝光电影网

蓝光电影网

本站内容由用户自主分享和转载自互联网,转载目的在于传递更多信息,并不代表本网赞同其观点和对其真实性负责。

如有侵权、违反国家法律政策行为,请联系我们,我们会第一时间及时清除和处理!

举报反馈邮箱:[email protected]

快速回复 返回顶部 返回列表