找回密码

蓝光电影网

查看: 4|回复: 0

[2160p] 难道不浪漫/好不浪漫 Isnt.It.Romantic.2019.2160p.NF.WEBRip.DDP5.1.x264-NTb 16.11GB

[复制链接]
蓝光币
426
发表于 2019-5-22 22:06:28 | 显示全部楼层 |阅读模式




◎译  名 难道不浪漫 / 好不浪漫(台) / 这不浪漫吗
◎片  名 Isn't It Romantic
◎年  代 2019
◎产  地 美国
◎类  别 笑剧 / 恋爱 / 奇异
◎语  言 英语
◎上映日期 2019-02-14(美国)
◎IMDb评分  5.9/10 from 37574 users
◎IMDb链接  http://www.imdb.com/title/tt2452244
◎豆瓣评分 5.9/10 from 3543 users
◎豆瓣链接 https://movie.douban.com/subject/27002812/
◎片  长 88分钟
◎导  演 托德·施特劳斯-斯古尔森 Todd Strauss-Schulson
◎编  剧 埃里·卡迪约 Erin Cardillo / 达纳·福克斯 Dana Fox / 凯瑟琳·西尔伯曼 Katie Silberman
◎主  演 蕾蓓尔·威尔森 Rebel Wilson
      利亚姆·海姆斯沃斯 Liam Hemsworth
      亚当·德维尼 Adam DeVine
      佩丽冉卡·曹帕拉 Priyanka Chopra
      布兰登·斯科特·琼斯 Brandon Scott Jones
      贝蒂·吉尔平 Betty Gilpin
      汤姆·艾利斯 Tom Ellis
      珍妮弗·桑德斯 Jennifer Saunders
      费斯·洛根 Faith Logan
      尤金娜·库日敏娜 Eugenia Kuzmina
      雪莉·罗德里格斯 Shyrley Rodriguez
      杰奎琳·霍尽力克 Jacqueline Honulik
      埃斯特班·贝尼托 Esteban Benito
      桃乐丝·麦卡锡 Doris McCarthy
      卢西亚诺·阿库尼亚 Luciano Acuna Jr.
      马米·科西科 Marmee Cosico

◎标  签 笑剧 | 恋爱 | 美国 | 搞笑 | 2019 | 奇异 | Netflix | 正能量
◎简  介  
  托德·施特劳斯-斯古尔森将执导新线影业新片[难道不浪漫](Isn’t It Romantic,暂译)。影片由蕾蓓尔·威尔森主演,报告一位刻薄女孩的普通生活一夜之间变作了布满浪漫的恋爱笑剧,她也由此成为朋友们的话题中心。斯古尔森以拍摄笑剧见长,2015年他导演的[幸存的女孩]曾入围多伦多电影节。
  1. Video
  2. ID                                       : 1
  3. Format                                   : AVC
  4. Format/Info                              : Advanced Video Codec
  5. Format profile                           : [email protected]
  6. Format settings                          : CABAC / 7 Ref Frames
  7. Format settings, CABAC                   : Yes
  8. Format settings, ReFrames                : 7 frames
  9. Codec ID                                 : V_MPEG4/ISO/AVC
  10. Duration                                 : 1 h 28 min
  11. Bit rate                                 : 25.5 Mb/s
  12. Width                                    : 3 840 pixels
  13. Height                                   : 1 608 pixels
  14. Display aspect ratio                     : 2.40:1
  15. Frame rate mode                          : Constant
  16. Frame rate                               : 23.976 (24000/1001) FPS
  17. Color space                              : YUV
  18. Chroma subsampling                       : 4:2:0
  19. Bit depth                                : 8 bits
  20. Scan type                                : Progressive
  21. Bits/(Pixel*Frame)                       : 0.172
  22. Stream size                              : 15.7 GiB (98%)
  23. Writing library                          : x264 core 152 r2851kMod ba24899
  24. Encoding settings                        : cabac=1 / ref=7 / deblock=1:-3:-3 / analyse=0x3:0x133 / me=umh / subme=10 / psy=1 / fade_compensate=0.00 / psy_rd=1.00:0.00 / mixed_ref=1 / me_range=48 / chroma_me=1 / trellis=2 / 8x8dct=1 / cqm=0 / deadzone=21,11 / fast_pskip=0 / chroma_qp_offset=-2 / threads=12 / lookahead_threads=2 / sliced_threads=0 / nr=0 / decimate=0 / interlaced=0 / bluray_compat=0 / constrained_intra=0 / bframes=8 / b_pyramid=2 / b_adapt=2 / b_bias=0 / direct=3 / weightb=1 / open_gop=0 / weightp=2 / keyint=250 / keyint_min=23 / scenecut=40 / intra_refresh=0 / rc=crf / mbtree=0 / crf=17.5000 / qcomp=0.60 / qpmin=0 / qpmax=69 / qpstep=4 / ip_ratio=1.30 / pb_ratio=1.20 / aq=3:0.80
  25. Language                                 : English
  26. Default                                  : Yes
  27. Forced                                   : No
  28. Audio
  29. ID                                       : 2
  30. Format                                   : E-AC-3
  31. Format/Info                              : Enhanced AC-3
  32. Commercial name                          : Dolby Digital Plus
  33. Codec ID                                 : A_EAC3
  34. Duration                                 : 1 h 28 min
  35. Bit rate mode                            : Constant
  36. Bit rate                                 : 640 kb/s
  37. Channel(s)                               : 6 channels
  38. Channel layout                           : L R C LFE Ls Rs
  39. Sampling rate                            : 48.0 kHz
  40. Frame rate                               : 31.250 FPS (1536 SPF)
  41. Compression mode                         : Lossy
  42. Stream size                              : 407 MiB (2%)
  43. Title                                    : English
  44. Language                                 : English
  45. Service kind                             : Complete Main
  46. Default                                  : Yes
  47. Forced                                   : No
  48. Text #1
  49. ID                                       : 3
  50. Format                                   : UTF-8
  51. Codec ID                                 : S_TEXT/UTF8
  52. Codec ID/Info                            : UTF-8 Plain Text
  53. Duration                                 : 1 h 24 min
  54. Bit rate                                 : 99 b/s
  55. Count of elements                        : 1785
  56. Stream size                              : 61.1 KiB (0%)
  57. Title                                    : SDH
  58. Language                                 : English
  59. Default                                  : No
  60. Forced                                   : No
  61. Text #2
  62. ID                                       : 4
  63. Format                                   : UTF-8
  64. Codec ID                                 : S_TEXT/UTF8
  65. Codec ID/Info                            : UTF-8 Plain Text
  66. Duration                                 : 1 h 22 min
  67. Bit rate                                 : 124 b/s
  68. Count of elements                        : 1494
  69. Stream size                              : 75.0 KiB (0%)
  70. Language                                 : Arabic
  71. Default                                  : No
  72. Forced                                   : No
  73. Text #3
  74. ID                                       : 5
  75. Format                                   : UTF-8
  76. Codec ID                                 : S_TEXT/UTF8
  77. Codec ID/Info                            : UTF-8 Plain Text
  78. Duration                                 : 1 h 22 min
  79. Bit rate                                 : 69 b/s
  80. Count of elements                        : 1423
  81. Stream size                              : 41.7 KiB (0%)
  82. Language                                 : Danish
  83. Default                                  : No
  84. Forced                                   : No
  85. Text #4
  86. ID                                       : 6
  87. Format                                   : UTF-8
  88. Codec ID                                 : S_TEXT/UTF8
  89. Codec ID/Info                            : UTF-8 Plain Text
  90. Duration                                 : 1 h 22 min
  91. Bit rate                                 : 69 b/s
  92. Count of elements                        : 1293
  93. Stream size                              : 41.9 KiB (0%)
  94. Language                                 : German
  95. Default                                  : No
  96. Forced                                   : No
  97. Text #5
  98. ID                                       : 7
  99. Format                                   : UTF-8
  100. Codec ID                                 : S_TEXT/UTF8
  101. Codec ID/Info                            : UTF-8 Plain Text
  102. Duration                                 : 1 h 22 min
  103. Bit rate                                 : 122 b/s
  104. Count of elements                        : 1478
  105. Stream size                              : 73.8 KiB (0%)
  106. Language                                 : Greek
  107. Default                                  : No
  108. Forced                                   : No
  109. Text #6
  110. ID                                       : 8
  111. Format                                   : UTF-8
  112. Codec ID                                 : S_TEXT/UTF8
  113. Codec ID/Info                            : UTF-8 Plain Text
  114. Duration                                 : 1 h 22 min
  115. Bit rate                                 : 71 b/s
  116. Count of elements                        : 1419
  117. Stream size                              : 43.0 KiB (0%)
  118. Language                                 : Spanish
  119. Default                                  : No
  120. Forced                                   : No
  121. Text #7
  122. ID                                       : 9
  123. Format                                   : UTF-8
  124. Codec ID                                 : S_TEXT/UTF8
  125. Codec ID/Info                            : UTF-8 Plain Text
  126. Duration                                 : 1 h 22 min
  127. Bit rate                                 : 61 b/s
  128. Count of elements                        : 1490
  129. Stream size                              : 36.9 KiB (0%)
  130. Title                                    : European
  131. Language                                 : Spanish
  132. Default                                  : No
  133. Forced                                   : No
  134. Text #8
  135. ID                                       : 10
  136. Format                                   : UTF-8
  137. Codec ID                                 : S_TEXT/UTF8
  138. Codec ID/Info                            : UTF-8 Plain Text
  139. Duration                                 : 1 h 22 min
  140. Bit rate                                 : 67 b/s
  141. Count of elements                        : 1277
  142. Stream size                              : 40.3 KiB (0%)
  143. Language                                 : Finnish
  144. Default                                  : No
  145. Forced                                   : No
  146. Text #9
  147. ID                                       : 11
  148. Format                                   : UTF-8
  149. Codec ID                                 : S_TEXT/UTF8
  150. Codec ID/Info                            : UTF-8 Plain Text
  151. Duration                                 : 1 h 22 min
  152. Bit rate                                 : 63 b/s
  153. Count of elements                        : 1392
  154. Stream size                              : 38.2 KiB (0%)
  155. Language                                 : French
  156. Default                                  : No
  157. Forced                                   : No
  158. Text #10
  159. ID                                       : 12
  160. Format                                   : UTF-8
  161. Codec ID                                 : S_TEXT/UTF8
  162. Codec ID/Info                            : UTF-8 Plain Text
  163. Duration                                 : 1 h 22 min
  164. Bit rate                                 : 122 b/s
  165. Count of elements                        : 1473
  166. Stream size                              : 73.8 KiB (0%)
  167. Language                                 : Hebrew
  168. Default                                  : No
  169. Forced                                   : No
  170. Text #11
  171. ID                                       : 13
  172. Format                                   : UTF-8
  173. Codec ID                                 : S_TEXT/UTF8
  174. Codec ID/Info                            : UTF-8 Plain Text
  175. Duration                                 : 1 h 22 min
  176. Bit rate                                 : 74 b/s
  177. Count of elements                        : 1479
  178. Stream size                              : 44.7 KiB (0%)
  179. Language                                 : Indonesian
  180. Default                                  : No
  181. Forced                                   : No
  182. Text #12
  183. ID                                       : 14
  184. Format                                   : UTF-8
  185. Codec ID                                 : S_TEXT/UTF8
  186. Codec ID/Info                            : UTF-8 Plain Text
  187. Duration                                 : 1 h 22 min
  188. Bit rate                                 : 65 b/s
  189. Count of elements                        : 1467
  190. Stream size                              : 39.3 KiB (0%)
  191. Language                                 : Italian
  192. Default                                  : No
  193. Forced                                   : No
  194. Text #13
  195. ID                                       : 15
  196. Format                                   : UTF-8
  197. Codec ID                                 : S_TEXT/UTF8
  198. Codec ID/Info                            : UTF-8 Plain Text
  199. Duration                                 : 1 h 22 min
  200. Bit rate                                 : 54 b/s
  201. Count of elements                        : 1543
  202. Stream size                              : 32.7 KiB (0%)
  203. Language                                 : Japanese
  204. Default                                  : No
  205. Forced                                   : No
  206. Text #14
  207. ID                                       : 16
  208. Format                                   : UTF-8
  209. Codec ID                                 : S_TEXT/UTF8
  210. Codec ID/Info                            : UTF-8 Plain Text
  211. Duration                                 : 1 h 22 min
  212. Bit rate                                 : 78 b/s
  213. Count of elements                        : 1506
  214. Stream size                              : 47.3 KiB (0%)
  215. Language                                 : Korean
  216. Default                                  : No
  217. Forced                                   : No
  218. Text #15
  219. ID                                       : 17
  220. Format                                   : UTF-8
  221. Codec ID                                 : S_TEXT/UTF8
  222. Codec ID/Info                            : UTF-8 Plain Text
  223. Duration                                 : 1 h 22 min
  224. Bit rate                                 : 70 b/s
  225. Count of elements                        : 1302
  226. Stream size                              : 42.3 KiB (0%)
  227. Language                                 : Norwegian Bokmal
  228. Default                                  : No
  229. Forced                                   : No
  230. Text #16
  231. ID                                       : 18
  232. Format                                   : UTF-8
  233. Codec ID                                 : S_TEXT/UTF8
  234. Codec ID/Info                            : UTF-8 Plain Text
  235. Duration                                 : 1 h 22 min
  236. Bit rate                                 : 72 b/s
  237. Count of elements                        : 1348
  238. Stream size                              : 43.6 KiB (0%)
  239. Language                                 : Dutch
  240. Default                                  : No
  241. Forced                                   : No
  242. Text #17
  243. ID                                       : 19
  244. Format                                   : UTF-8
  245. Codec ID                                 : S_TEXT/UTF8
  246. Codec ID/Info                            : UTF-8 Plain Text
  247. Duration                                 : 1 h 22 min
  248. Bit rate                                 : 63 b/s
  249. Count of elements                        : 1490
  250. Stream size                              : 38.4 KiB (0%)
  251. Language                                 : Polish
  252. Default                                  : No
  253. Forced                                   : No
  254. Text #18
  255. ID                                       : 20
  256. Format                                   : UTF-8
  257. Codec ID                                 : S_TEXT/UTF8
  258. Codec ID/Info                            : UTF-8 Plain Text
  259. Duration                                 : 1 h 19 min
  260. Bit rate                                 : 76 b/s
  261. Count of elements                        : 1468
  262. Stream size                              : 44.8 KiB (0%)
  263. Language                                 : Portuguese
  264. Default                                  : No
  265. Forced                                   : No
  266. Text #19
  267. ID                                       : 21
  268. Format                                   : UTF-8
  269. Codec ID                                 : S_TEXT/UTF8
  270. Codec ID/Info                            : UTF-8 Plain Text
  271. Duration                                 : 1 h 22 min
  272. Bit rate                                 : 76 b/s
  273. Count of elements                        : 1451
  274. Stream size                              : 46.2 KiB (0%)
  275. Title                                    : Brazilian
  276. Language                                 : Portuguese
  277. Default                                  : No
  278. Forced                                   : No
  279. Text #20
  280. ID                                       : 22
  281. Format                                   : UTF-8
  282. Codec ID                                 : S_TEXT/UTF8
  283. Codec ID/Info                            : UTF-8 Plain Text
  284. Duration                                 : 1 h 22 min
  285. Bit rate                                 : 72 b/s
  286. Count of elements                        : 1417
  287. Stream size                              : 43.7 KiB (0%)
  288. Language                                 : Romanian
  289. Default                                  : No
  290. Forced                                   : No
  291. Text #21
  292. ID                                       : 23
  293. Format                                   : UTF-8
  294. Codec ID                                 : S_TEXT/UTF8
  295. Codec ID/Info                            : UTF-8 Plain Text
  296. Duration                                 : 1 h 22 min
  297. Bit rate                                 : 123 b/s
  298. Count of elements                        : 1330
  299. Stream size                              : 74.3 KiB (0%)
  300. Language                                 : Russian
  301. Default                                  : No
  302. Forced                                   : No
  303. Text #22
  304. ID                                       : 24
  305. Format                                   : UTF-8
  306. Codec ID                                 : S_TEXT/UTF8
  307. Codec ID/Info                            : UTF-8 Plain Text
  308. Duration                                 : 1 h 22 min
  309. Bit rate                                 : 67 b/s
  310. Count of elements                        : 1220
  311. Stream size                              : 40.5 KiB (0%)
  312. Language                                 : Swedish
  313. Default                                  : No
  314. Forced                                   : No
  315. Text #23
  316. ID                                       : 25
  317. Format                                   : UTF-8
  318. Codec ID                                 : S_TEXT/UTF8
  319. Codec ID/Info                            : UTF-8 Plain Text
  320. Duration                                 : 1 h 22 min
  321. Bit rate                                 : 176 b/s
  322. Count of elements                        : 1504
  323. Stream size                              : 106 KiB (0%)
  324. Language                                 : Thai
  325. Default                                  : No
  326. Forced                                   : No
  327. Text #24
  328. ID                                       : 26
  329. Format                                   : UTF-8
  330. Codec ID                                 : S_TEXT/UTF8
  331. Codec ID/Info                            : UTF-8 Plain Text
  332. Duration                                 : 1 h 22 min
  333. Bit rate                                 : 69 b/s
  334. Count of elements                        : 1475
  335. Stream size                              : 41.8 KiB (0%)
  336. Language                                 : Turkish
  337. Default                                  : No
  338. Forced                                   : No
  339. Text #25
  340. ID                                       : 27
  341. Format                                   : UTF-8
  342. Codec ID                                 : S_TEXT/UTF8
  343. Codec ID/Info                            : UTF-8 Plain Text
  344. Duration                                 : 1 h 22 min
  345. Bit rate                                 : 67 b/s
  346. Count of elements                        : 1494
  347. Stream size                              : 40.4 KiB (0%)
  348. Title                                    : Simplified
  349. Language                                 : Chinese
  350. Default                                  : No
  351. Forced                                   : No
  352. Text #26
  353. ID                                       : 28
  354. Format                                   : UTF-8
  355. Codec ID                                 : S_TEXT/UTF8
  356. Codec ID/Info                            : UTF-8 Plain Text
  357. Duration                                 : 1 h 22 min
  358. Bit rate                                 : 70 b/s
  359. Count of elements                        : 1494
  360. Stream size                              : 42.3 KiB (0%)
  361. Title                                    : Traditional
  362. Language                                 : Chinese
  363. Default                                  : No
  364. Forced                                   : No
复制代码






                                       
                                       

                                       
                                       
                                       




回复

使用道具 举报

懒得打字嘛,点击右侧快捷回复 【右侧内容,后台自定义】
您需要登录后才可以回帖 登录 | 立即加入

本版积分规则

Archiver|小黑屋| 蓝光电影网 |网站地图

Copyright © 2021 Comsenz Inc. Powered by 蓝光电影网

蓝光电影网

本站内容由用户自主分享和转载自互联网,转载目的在于传递更多信息,并不代表本网赞同其观点和对其真实性负责。

如有侵权、违反国家法律政策行为,请联系我们,我们会第一时间及时清除和处理!

举报反馈邮箱:[email protected]

快速回复 返回顶部 返回列表