找回密码

蓝光电影网

查看: 11|回复: 0

[2160p] 星球大战 Star.Wars.Episode.IV.A.New.Hope.1977.2160p.CUSTOM.DCPRIP.SDR.x265.DTS-HD.MA.5.1-4k77v1.4 73.34GB

[复制链接]
蓝光币
426
发表于 2019-6-3 19:27:43 | 显示全部楼层 |阅读模式


◎译  名 星球大战 / Star Wars: Episode IV - A New Hope / 星球大战第四集:新希望 / 星际大战 / 星际大战四部曲:曙光乍现
◎片  名 Star Wars
◎年  代 1977
◎产  地 美国
◎类  别 行动 / 科幻 / 冒险
◎语  言 英语
◎上映日期 1977-05-25(美国)
◎IMDb评分  8.6/10 from 1119094 users
◎IMDb链接  http://www.imdb.com/title/tt0076759
◎豆瓣评分 8.4/10 from 83547 users
◎豆瓣链接 https://movie.douban.com/subject/1293838/
◎片  长 121分钟
◎导  演 乔治·卢卡斯 George Lucas
◎编  剧 乔治·卢卡斯 George Lucas
◎主  演 哈里森·福特 Harrison Ford
      马克·哈米尔 Mark Hamill
      凯丽·费雪 Carrie Fisher
      彼得·库欣 Peter Cushing
      亚利克·基尼斯 Alec Guinness
      彼特·梅靥 Peter Mayhew
      大卫·鲍罗斯 David Prowse
      詹姆斯·厄尔·琼斯 James Earl Jones

◎标  签 科幻 | 星球大战 | 美国 | 典范 | 1977 | 行动 | 冒险 | 战争
◎简  介  
  悠远星系发生叛乱,银河共和国被颠覆,奥尔德兰星的莉亚公主(卡里?费什尔 Carrie Fisher 饰)带领抵抗构造匹敌银河帝国,却不幸被银河帝国的维德勋爵(大卫?普劳斯 David Prowse 饰)所俘。机械人R2-D2携银河帝国新兵器“死星”的结构图与同伴翻译机械人C-3PO逃至塔图因星,途中被加瓦人捉住卖给青年卢克?天行者(马克?哈米尔 Mark Hamill 饰)的叔父。在卢克的帮助下,众人阴错阳差找到了隐居的绝地军人欧比-旺?肯诺比(亚历克?吉尼斯 Alec Guinness 饰)。欧比-旺交给卢克绝地之道,并带卢克与两机械人到口岸城市茅斯伊斯垒,雇佣走私者韩?索罗(哈里森?福特饰)的千年隼飞船前往奥尔德兰……
本片获第50界奥斯卡最好艺术指导,最好打扮设想,最好视觉结果,最好剪辑,最好原创音乐,最好声效六项大奖及特别进献奖(本?伯特 Ben Burtt),并获最好电影,最好男配角(亚历克?吉尼斯),最好导演(乔治?卢卡斯),最好原创电影音乐四项提名。
◎获奖情况  
  第50届奥斯卡金像奖(1978)
  最好影片(提名) 加里·库尔茨
  最好导演(提名) 乔治·卢卡斯
  最好男配角(提名) 亚历克·吉尼斯
  最好原创剧本(提名) 乔治·卢卡斯
  最好剪辑 赵汝钜 / 保罗·赫希 / Marcia Lucas
  最好视觉结果 约翰·戴克斯特拉 / 理查德·艾德兰德 / John Stears / Robert Blalack / 格兰特·麦丘恩
  最好声响 唐·麦克杜格尔 / Bob Minkler / Derek Ball / Ray West
  最好艺术指导 诺曼·雷诺兹 / 罗杰·克里斯蒂安 / John Barry / 莱斯利·迪利
  最好打扮设想 John Mollo
  最好原创配乐 约翰·威廉姆斯
  出格成就奖 本·贝尔特
  第3届报知映画赏(1978)
  外洋作品奖 乔治·卢卡斯

  1. Video
  2. ID                                       : 1
  3. Format                                   : HEVC
  4. Format/Info                              : High Efficiency Video Coding
  5. Format profile                           : Main [email protected]@High
  6. Codec ID                                 : V_MPEGH/ISO/HEVC
  7. Duration                                 : 2 h 1 min
  8. Bit rate                                 : 77.0 Mb/s
  9. Width                                    : 3 840 pixels
  10. Height                                   : 2 160 pixels
  11. Display aspect ratio                     : 16:9
  12. Frame rate mode                          : Constant
  13. Frame rate                               : 23.976 (24000/1001) FPS
  14. Standard                                 : Component
  15. Color space                              : YUV
  16. Chroma subsampling                       : 4:2:0
  17. Bit depth                                : 10 bits
  18. Bits/(Pixel*Frame)                       : 0.387
  19. Stream size                              : 65.4 GiB (89%)
  20. Writing library                          : x265 :[Windows][MSVC 1800][64 bit] 16bpp
  21. Encoding settings                        : wpp / ctu=64 / min-cu-size=8 / max-tu-size=32 / tu-intra-depth=1 / tu-inter-depth=1 / me=1 / subme=2 / merange=57 / no-rect / no-amp / max-merge=2 / temporal-mvp / no-early-skip / rdpenalty=0 / no-tskip / no-tskip-fast / no-strong-intra-smoothing / no-lossless / no-cu-lossless / no-constrained-intra / no-fast-intra / open-gop / no-temporal-layers / interlace=0 / keyint=250 / min-keyint=23 / scenecut=40 / rc-lookahead=20 / lookahead-slices=8 / bframes=3 / bframe-bias=0 / b-adapt=2 / ref=5 / limit-refs=3 / no-limit-modes / weightp / no-weightb / aq-mode=1 / qg-size=64 / aq-strength=1.00 / cbqpoffs=0 / crqpoffs=0 / rd=3 / psy-rd=2.00 / rdoq-level=0 / psy-rdoq=0.00 / signhide / deblock / sao / no-sao-non-deblock / no-b-pyramid / cutree / no-intra-refresh / rc=2 / pass / bitrate=77000000 / qcomp=0.60 / qpmin=0 / qpmax=51 / qpstep=4 / cplxblur=20.0 / qblur=0.5 / vbv-maxrate=119250000 / vbv-bufsize=119250000 / ipratio=1.40 / pbratio=1.30
  22. Language                                 : English
  23. Default                                  : Yes
  24. Forced                                   : No
  25. Color range                              : Limited
  26. Color primaries                          : BT.709
  27. Transfer characteristics                 : BT.709
  28. Matrix coefficients                      : BT.709
  29. Audio #1
  30. ID                                       : 2
  31. Format                                   : DTS XLL
  32. Format/Info                              : Digital Theater Systems
  33. Commercial name                          : DTS-HD Master Audio
  34. Codec ID                                 : A_DTS
  35. Duration                                 : 2 h 1 min
  36. Bit rate mode                            : Variable
  37. Bit rate                                 : 1 642 kb/s
  38. Channel(s)                               : 2 channels
  39. Sampling rate                            : 48.0 kHz
  40. Frame rate                               : 93.750 FPS (512 SPF)
  41. Bit depth                                : 16 bits
  42. Compression mode                         : Lossless
  43. Stream size                              : 1.39 GiB (2%)
  44. Title                                    : 2.0 DTS-HD-MA (1977 35mm stereo mix 2018)
  45. Language                                 : English
  46. Default                                  : Yes
  47. Forced                                   : No
  48. Audio #2
  49. ID                                       : 3
  50. Format                                   : DTS XLL
  51. Format/Info                              : Digital Theater Systems
  52. Commercial name                          : DTS-HD Master Audio
  53. Codec ID                                 : A_DTS
  54. Duration                                 : 2 h 1 min
  55. Bit rate mode                            : Variable
  56. Bit rate                                 : 3 711 kb/s
  57. Channel(s)                               : 6 channels
  58. Channel layout                           : C L R Ls Rs LFE
  59. Sampling rate                            : 48.0 kHz
  60. Frame rate                               : 93.750 FPS (512 SPF)
  61. Bit depth                                : 24 bits
  62. Compression mode                         : Lossless
  63. Stream size                              : 3.14 GiB (4%)
  64. Title                                    : 5.1 DTS-HD-MA (1977 70mm six track mix 2018)
  65. Language                                 : English
  66. Default                                  : No
  67. Forced                                   : No
  68. Audio #3
  69. ID                                       : 4
  70. Format                                   : DTS XLL
  71. Format/Info                              : Digital Theater Systems
  72. Commercial name                          : DTS-HD Master Audio
  73. Codec ID                                 : A_DTS
  74. Duration                                 : 2 h 1 min
  75. Bit rate mode                            : Variable
  76. Bit rate                                 : 544 kb/s
  77. Channel(s)                               : 1 channel
  78. Channel layout                           : C
  79. Sampling rate                            : 48.0 kHz
  80. Frame rate                               : 93.750 FPS (512 SPF)
  81. Bit depth                                : 16 bits
  82. Compression mode                         : Lossless
  83. Stream size                              : 471 MiB (1%)
  84. Title                                    : 1.0 DTS-HD-MA (1977 35mm mono mix)
  85. Language                                 : English
  86. Default                                  : No
  87. Forced                                   : No
  88. Audio #4
  89. ID                                       : 5
  90. Format                                   : AC-3
  91. Format/Info                              : Audio Coding 3
  92. Commercial name                          : Dolby Digital
  93. Codec ID                                 : A_AC3
  94. Duration                                 : 2 h 1 min
  95. Bit rate mode                            : Constant
  96. Bit rate                                 : 192 kb/s
  97. Channel(s)                               : 2 channels
  98. Channel layout                           : L R
  99. Sampling rate                            : 48.0 kHz
  100. Frame rate                               : 31.250 FPS (1536 SPF)
  101. Bit depth                                : 16 bits
  102. Compression mode                         : Lossy
  103. Stream size                              : 166 MiB (0%)
  104. Title                                    : 2.0 Dolby Digital (1978 dub reconstruction)
  105. Language                                 : German
  106. Service kind                             : Complete Main
  107. Default                                  : No
  108. Forced                                   : No
  109. Audio #5
  110. ID                                       : 6
  111. Format                                   : AC-3
  112. Format/Info                              : Audio Coding 3
  113. Commercial name                          : Dolby Digital
  114. Codec ID                                 : A_AC3
  115. Duration                                 : 2 h 1 min
  116. Bit rate mode                            : Constant
  117. Bit rate                                 : 192 kb/s
  118. Channel(s)                               : 2 channels
  119. Channel layout                           : L R
  120. Sampling rate                            : 48.0 kHz
  121. Frame rate                               : 31.250 FPS (1536 SPF)
  122. Bit depth                                : 16 bits
  123. Compression mode                         : Lossy
  124. Stream size                              : 166 MiB (0%)
  125. Title                                    : 2.0 Dolby Digital (1977 dub)
  126. Language                                 : French
  127. Service kind                             : Complete Main
  128. Default                                  : No
  129. Forced                                   : No
  130. Audio #6
  131. ID                                       : 7
  132. Format                                   : AC-3
  133. Format/Info                              : Audio Coding 3
  134. Commercial name                          : Dolby Digital
  135. Codec ID                                 : A_AC3
  136. Duration                                 : 2 h 1 min
  137. Bit rate mode                            : Constant
  138. Bit rate                                 : 192 kb/s
  139. Channel(s)                               : 2 channels
  140. Channel layout                           : L R
  141. Sampling rate                            : 48.0 kHz
  142. Frame rate                               : 31.250 FPS (1536 SPF)
  143. Bit depth                                : 16 bits
  144. Compression mode                         : Lossy
  145. Stream size                              : 166 MiB (0%)
  146. Title                                    : 2.0 Dolby Digital (1977 Castilian dub)
  147. Language                                 : Spanish
  148. Service kind                             : Complete Main
  149. Default                                  : No
  150. Forced                                   : No
  151. Audio #7
  152. ID                                       : 8
  153. Format                                   : AC-3
  154. Format/Info                              : Audio Coding 3
  155. Commercial name                          : Dolby Digital
  156. Codec ID                                 : A_AC3
  157. Duration                                 : 2 h 1 min
  158. Bit rate mode                            : Constant
  159. Bit rate                                 : 96.0 kb/s
  160. Channel(s)                               : 1 channel
  161. Channel layout                           : C
  162. Sampling rate                            : 48.0 kHz
  163. Frame rate                               : 31.250 FPS (1536 SPF)
  164. Bit depth                                : 16 bits
  165. Compression mode                         : Lossy
  166. Stream size                              : 83.2 MiB (0%)
  167. Title                                    : 1.0 Dolby Digital (1980 Latino dub)
  168. Language                                 : Spanish
  169. Service kind                             : Complete Main
  170. Default                                  : No
  171. Forced                                   : No
  172. Audio #8
  173. ID                                       : 9
  174. Format                                   : AC-3
  175. Format/Info                              : Audio Coding 3
  176. Commercial name                          : Dolby Digital
  177. Codec ID                                 : A_AC3
  178. Duration                                 : 2 h 1 min
  179. Bit rate mode                            : Constant
  180. Bit rate                                 : 192 kb/s
  181. Channel(s)                               : 2 channels
  182. Channel layout                           : L R
  183. Sampling rate                            : 48.0 kHz
  184. Frame rate                               : 31.250 FPS (1536 SPF)
  185. Bit depth                                : 16 bits
  186. Compression mode                         : Lossy
  187. Stream size                              : 166 MiB (0%)
  188. Title                                    : 2.0 Dolby Digital (1977 dub)
  189. Language                                 : Italian
  190. Service kind                             : Complete Main
  191. Default                                  : No
  192. Forced                                   : No
  193. Audio #9
  194. ID                                       : 10
  195. Format                                   : AC-3
  196. Format/Info                              : Audio Coding 3
  197. Commercial name                          : Dolby Digital
  198. Codec ID                                 : A_AC3
  199. Duration                                 : 2 h 1 min
  200. Bit rate mode                            : Constant
  201. Bit rate                                 : 192 kb/s
  202. Channel(s)                               : 2 channels
  203. Channel layout                           : L R
  204. Sampling rate                            : 48.0 kHz
  205. Frame rate                               : 31.250 FPS (1536 SPF)
  206. Bit depth                                : 16 bits
  207. Compression mode                         : Lossy
  208. Stream size                              : 166 MiB (0%)
  209. Title                                    : 2.0 Dolby Digital (1995 Voiceover)
  210. Language                                 : Polish
  211. Service kind                             : Complete Main
  212. Default                                  : No
  213. Forced                                   : No
  214. Audio #10
  215. ID                                       : 11
  216. Format                                   : AC-3
  217. Format/Info                              : Audio Coding 3
  218. Commercial name                          : Dolby Digital
  219. Codec ID                                 : A_AC3
  220. Duration                                 : 2 h 1 min
  221. Bit rate mode                            : Constant
  222. Bit rate                                 : 192 kb/s
  223. Channel(s)                               : 2 channels
  224. Channel layout                           : L R
  225. Sampling rate                            : 48.0 kHz
  226. Frame rate                               : 31.250 FPS (1536 SPF)
  227. Bit depth                                : 16 bits
  228. Compression mode                         : Lossy
  229. Stream size                              : 166 MiB (0%)
  230. Title                                    : 2.0 Dolby Digital (1992 dub)
  231. Language                                 : Czech
  232. Service kind                             : Complete Main
  233. Default                                  : No
  234. Forced                                   : No
  235. Audio #11
  236. ID                                       : 12
  237. Format                                   : AC-3
  238. Format/Info                              : Audio Coding 3
  239. Commercial name                          : Dolby Digital
  240. Codec ID                                 : A_AC3
  241. Duration                                 : 2 h 1 min
  242. Bit rate mode                            : Constant
  243. Bit rate                                 : 384 kb/s
  244. Channel(s)                               : 3 channels
  245. Channel layout                           : L R C
  246. Sampling rate                            : 48.0 kHz
  247. Frame rate                               : 31.250 FPS (1536 SPF)
  248. Bit depth                                : 16 bits
  249. Compression mode                         : Lossy
  250. Stream size                              : 333 MiB (0%)
  251. Title                                    : 3.0 Dolby Digital (1993 LD Audio Commentary - 2018)
  252. Language                                 : English
  253. Service kind                             : Complete Main
  254. Default                                  : No
  255. Forced                                   : No
  256. Audio #12
  257. ID                                       : 13
  258. Format                                   : AC-3
  259. Format/Info                              : Audio Coding 3
  260. Commercial name                          : Dolby Digital
  261. Codec ID                                 : A_AC3
  262. Duration                                 : 2 h 1 min
  263. Bit rate mode                            : Constant
  264. Bit rate                                 : 384 kb/s
  265. Channel(s)                               : 2 channels
  266. Channel layout                           : L R
  267. Sampling rate                            : 48.0 kHz
  268. Frame rate                               : 31.250 FPS (1536 SPF)
  269. Bit depth                                : 16 bits
  270. Compression mode                         : Lossy
  271. Stream size                              : 333 MiB (0%)
  272. Title                                    : 2.0 Dolby Digital (Isolated Score 2018)
  273. Language                                 : English
  274. Service kind                             : Complete Main
  275. Default                                  : No
  276. Forced                                   : No
  277. Audio #13
  278. ID                                       : 14
  279. Format                                   : AC-3
  280. Format/Info                              : Audio Coding 3
  281. Commercial name                          : Dolby Digital
  282. Codec ID                                 : A_AC3
  283. Duration                                 : 2 h 1 min
  284. Bit rate mode                            : Constant
  285. Bit rate                                 : 192 kb/s
  286. Channel(s)                               : 2 channels
  287. Channel layout                           : L R
  288. Sampling rate                            : 48.0 kHz
  289. Frame rate                               : 31.250 FPS (1536 SPF)
  290. Bit depth                                : 16 bits
  291. Compression mode                         : Lossy
  292. Stream size                              : 167 MiB (0%)
  293. Title                                    : 2.0 Dolby Digital (Commentary For Visually Impaired)
  294. Language                                 : English
  295. Service kind                             : Complete Main
  296. Default                                  : No
  297. Forced                                   : No
  298. Audio #14
  299. ID                                       : 15
  300. Format                                   : AC-3
  301. Format/Info                              : Audio Coding 3
  302. Commercial name                          : Dolby Digital
  303. Codec ID                                 : A_AC3
  304. Duration                                 : 2 h 1 min
  305. Bit rate mode                            : Constant
  306. Bit rate                                 : 384 kb/s
  307. Channel(s)                               : 2 channels
  308. Channel layout                           : L R
  309. Sampling rate                            : 48.0 kHz
  310. Frame rate                               : 31.250 FPS (1536 SPF)
  311. Bit depth                                : 16 bits
  312. Compression mode                         : Lossy
  313. Stream size                              : 333 MiB (0%)
  314. Title                                    : 2.0 Dolby Digital 1985 Stereo Remix English
  315. Language                                 : English
  316. Service kind                             : Complete Main
  317. Default                                  : No
  318. Forced                                   : No
  319. Audio #15
  320. ID                                       : 16
  321. Format                                   : AC-3
  322. Format/Info                              : Audio Coding 3
  323. Commercial name                          : Dolby Digital
  324. Codec ID                                 : A_AC3
  325. Duration                                 : 2 h 1 min
  326. Bit rate mode                            : Constant
  327. Bit rate                                 : 384 kb/s
  328. Channel(s)                               : 2 channels
  329. Channel layout                           : L R
  330. Sampling rate                            : 48.0 kHz
  331. Frame rate                               : 31.250 FPS (1536 SPF)
  332. Bit depth                                : 16 bits
  333. Compression mode                         : Lossy
  334. Stream size                              : 333 MiB (0%)
  335. Title                                    : 2.0 Dolby Digital 1993 Stereo Remix English
  336. Language                                 : English
  337. Service kind                             : Complete Main
  338. Default                                  : No
  339. Forced                                   : No
  340. Audio #16
  341. ID                                       : 17
  342. Format                                   : AC-3
  343. Format/Info                              : Audio Coding 3
  344. Commercial name                          : Dolby Digital
  345. Codec ID                                 : A_AC3
  346. Duration                                 : 2 h 1 min
  347. Bit rate mode                            : Constant
  348. Bit rate                                 : 320 kb/s
  349. Channel(s)                               : 2 channels
  350. Channel layout                           : L R
  351. Sampling rate                            : 48.0 kHz
  352. Frame rate                               : 31.250 FPS (1536 SPF)
  353. Bit depth                                : 16 bits
  354. Compression mode                         : Lossy
  355. Stream size                              : 277 MiB (0%)
  356. Title                                    : 2.0 Dolby Digital (1977 35mm stereo mix Dolby A)
  357. Language                                 : English
  358. Service kind                             : Complete Main
  359. Default                                  : No
  360. Forced                                   : No
  361. Menu
  362. 00:00:00.000                             : en:
  363. 00:00:21.187                             : en:
  364. 00:01:54.616                             : en:
  365. 00:04:53.335                             : en:
  366. 00:07:28.828                             : en:
  367. 00:08:55.217                             : en:
  368. 00:11:21.701                             : en:
  369. 00:15:23.618                             : en:
  370. 00:19:19.862                             : en:
  371. 00:23:13.301                             : en:
  372. 00:25:12.225                             : en:
  373. 00:27:25.196                             : en:
  374. 00:28:52.319                             : en:
  375. 00:32:13.827                             : en:
  376. 00:34:32.637                             : en:
  377. 00:36:33.762                             : en:
  378. 00:38:45.265                             : en:
  379. 00:41:20.893                             : en:
  380. 00:42:10.444                             : en:
  381. 00:43:59.756                             : en:
  382. 00:47:00.743                             : en:
  383. 00:49:06.038                             : en:
  384. 00:50:21.951                             : en:
  385. 00:51:40.699                             : en:
  386. 00:51:48.541                             : en:
  387. 00:54:30.875                             : en:
  388. 00:56:43.846                             : en:
  389. 01:00:41.791                             : en:
  390. 01:03:47.450                             : en:
  391. 01:05:52.946                             : en:
  392. 01:10:03.338                             : en:
  393. 01:11:43.640                             : en:
  394. 01:14:44.795                             : en:
  395. 01:16:40.414                             : en:
  396. 01:19:00.393                             : en:
  397. 01:22:31.277                             : en:
  398. 01:24:33.103                             : en:
  399. 01:27:27.250                             : en:
  400. 01:31:19.189                             : en:
  401. 01:34:10.999                             : en:
  402. 01:35:37.789                             : en:
  403. 01:37:08.182                             : en:
  404. 01:38:55.493                             : en:
  405. 01:40:08.402                             : en:
  406. 01:42:07.892                             : en:
  407. 01:46:48.148                             : en:
  408. 01:52:24.195                             : en:
  409. 01:54:52.648                             : en:
  410. 01:55:34.191                             : en:
  411. 01:57:19.800                             : en:
复制代码






                                       
                                       

                                       
                                       
                                       




星球大战 Star.Wars.Episode.IV.A.New.Hope.1977.2160p.CUSTOM.DCPRIP.SDR.x265.DTS-HD.MA.5.1-4k77v1.4 73.34GB

Star.Wars.Episode.IV.A.New.Hope.1977.2160p.CUSTOM.DCPRIP.SDR.x265.DTS-HD.MA.5.1-.torrent

187.67 KB, 下载次数: 0, 下载积分: 蓝光币 -2

回复

使用道具 举报

懒得打字嘛,点击右侧快捷回复 【右侧内容,后台自定义】
您需要登录后才可以回帖 登录 | 立即加入

本版积分规则

Archiver|小黑屋| 蓝光电影网 |网站地图

Copyright © 2021 Comsenz Inc. Powered by 蓝光电影网

蓝光电影网

本站内容由用户自主分享和转载自互联网,转载目的在于传递更多信息,并不代表本网赞同其观点和对其真实性负责。

如有侵权、违反国家法律政策行为,请联系我们,我们会第一时间及时清除和处理!

举报反馈邮箱:[email protected]

快速回复 返回顶部 返回列表