找回密码

蓝光电影网

查看: 12|回复: 0

[2160p] 惊奇队长/Marvel队长 Captain.Marvel.2019.2160p.WEB-DL.x265.10bit.SDR.DDP5.1.Atmos-MOMA 12.62GB

[复制链接]
蓝光币
382
发表于 2019-6-3 16:10:02 | 显示全部楼层 |阅读模式


◎译  名 惊奇队长 / Marvel队长(港) / 惊奇密斯 / 漫威队长
◎片  名 Captain Marvel
◎年  代 2019
◎产  地 美国
◎类  别 行动 / 科幻 / 冒险
◎语  言 英语
◎上映日期 2019-03-08(美国/中国大陆)
◎IMDb评分  7.1/10 from 268698 users
◎IMDb链接  http://www.imdb.com/title/tt4154664
◎豆瓣评分 7.0/10 from 298554 users
◎豆瓣链接 https://movie.douban.com/subject/26213252/
◎片  长 124分钟
◎导  演 安娜·波顿 Anna Boden / 瑞安·弗雷克 Ryan Fleck
◎编  剧 安娜·波顿 Anna Boden / 瑞安·弗雷克 Ryan Fleck / 吉内瓦·德沃莱特-罗宾森 Geneva Dworet-Robertson / 尼科尔·帕尔曼 Nicole Perlman / 梅格·勒福夫 Meg LeFauve
◎主  演 布丽·拉尔森 Brie Larson
      裘德·洛 Jude Law
      塞缪尔·杰克逊 Samuel L. Jackson
      本·门德尔森 Ben Mendelsohn
      安妮特·贝宁 Annette Bening
      麦肯娜·格瑞丝 Mckenna Grace
      克拉克·格雷格 Clark Gregg
      嘉玛·陈 Gemma Chan
      李·佩斯 Lee Pace
      杰曼·翰苏 Djimon Hounsou
      拉什纳·林奇 Lashana Lynch
      阿基拉·阿克巴 Akira Akbar
      科林·福特 Colin Ford
      卓库·莫度 Chuku Modu
      肯内特·米歇尔 Kenneth Mitchell
      罗伯特·卡辛斯基 Robert Kazinsky
      詹姆斯·莫里森 James Morrison
      皮特·普劳泽克 Pete Ploszek
      马修·马希尔 Matthew Maher
      安东尼·莫利纳利 Anthony Molinari
      马修·弗林·贝罗斯 Matthew Flynn Bellows
      加斯顿·达尔莫 Gastón Dalmau
      亚当·哈特 Adam Hart
      Mark Daugherty
      雷尼尔·鲁菲诺 Rayniel Rufino
      约翰·盖蒂尔 John Gettier
      斯坦·李 Stan Lee
      克里斯·埃文斯 Chris Evans
      斯嘉丽·约翰逊 Scarlett Johansson
      马克·鲁弗洛 Mark Ruffalo
      唐·钱德尔 Don Cheadle

◎标  签 漫威 | 超级豪杰 | 女性 | 美国 | 科幻 | 2019 | 漫画改编 | 行动
◎简  介  
  在围歼斯克鲁人的战役中,克里人星际战队成员弗斯(布丽·拉尔森 Brie Larson 饰)不幸成为对方的俘虏。斯克鲁人尝试探讨弗斯的记忆,终极发现连弗斯本人都不晓得的一段往事,进而也得著名为温迪?劳森博士的女子把握着他们急于获得的时空引擎。趁对方不备,具有强大超才能的弗斯摆脱约束,逃到了代号为C-53的地球,而这里也正是她那段失落的记忆的发生地。未过量久,神盾局捕快弗瑞奸细(塞缪尔·杰克逊 Samuel L. Jackson 饰)找上门来,而紧随厥后的斯克鲁人更是激发了地球人前所未见的大纷扰。
在这一进程中,弗瑞奸细意想到局势的严重性,而且帮助弗斯认清原本的自己。倔强的弗斯,终究找到了真正需要庇护的工具……
◎获奖情况  
  第5届豆瓣电影年度榜单(2018)
  最值得期待的外语电影(提名)

  1. Video
  2. ID                                       : 1
  3. Format                                   : HEVC
  4. Format/Info                              : High Efficiency Video Coding
  5. Format profile                           : Main [email protected]@Main
  6. Codec ID                                 : V_MPEGH/ISO/HEVC
  7. Duration                                 : 2 h 3 min
  8. Bit rate                                 : 14.0 Mb/s
  9. Width                                    : 3 840 pixels
  10. Height                                   : 2 160 pixels
  11. Display aspect ratio                     : 16:9
  12. Frame rate mode                          : Constant
  13. Frame rate                               : 23.976 (24000/1001) FPS
  14. Color space                              : YUV
  15. Chroma subsampling                       : 4:2:0
  16. Bit depth                                : 10 bits
  17. Bits/(Pixel*Frame)                       : 0.071
  18. Stream size                              : 12.1 GiB (96%)
  19. Default                                  : Yes
  20. Forced                                   : No
  21. Audio
  22. ID                                       : 2
  23. Format                                   : E-AC-3 JOC
  24. Format/Info                              : Enhanced AC-3 with Joint Object Coding
  25. Commercial name                          : Dolby Digital Plus with Dolby Atmos
  26. Codec ID                                 : A_EAC3
  27. Duration                                 : 2 h 3 min
  28. Bit rate mode                            : Constant
  29. Bit rate                                 : 576 kb/s
  30. Channel(s)                               : 6 channels
  31. Channel layout                           : L R C LFE Ls Rs
  32. Sampling rate                            : 48.0 kHz
  33. Frame rate                               : 31.250 FPS (1536 SPF)
  34. Compression mode                         : Lossy
  35. Stream size                              : 510 MiB (4%)
  36. Language                                 : English
  37. Service kind                             : Complete Main
  38. Default                                  : Yes
  39. Forced                                   : No
  40. Complexity index                         : 16
  41. Number of dynamic objects                : 15
  42. Bed channel count                        : 1 channel
  43. Bed channel configuration                : LFE
  44. Text #1
  45. ID                                       : 3
  46. Format                                   : UTF-8
  47. Codec ID                                 : S_TEXT/UTF8
  48. Codec ID/Info                            : UTF-8 Plain Text
  49. Duration                                 : 1 h 53 min
  50. Bit rate                                 : 47 b/s
  51. Count of elements                        : 1424
  52. Stream size                              : 39.3 KiB (0%)
  53. Language                                 : English
  54. Default                                  : No
  55. Forced                                   : No
  56. Text #2
  57. ID                                       : 4
  58. Format                                   : UTF-8
  59. Codec ID                                 : S_TEXT/UTF8
  60. Codec ID/Info                            : UTF-8 Plain Text
  61. Duration                                 : 2 h 2 min
  62. Bit rate                                 : 50 b/s
  63. Count of elements                        : 1668
  64. Stream size                              : 45.3 KiB (0%)
  65. Title                                    : SDH
  66. Language                                 : English
  67. Default                                  : No
  68. Forced                                   : No
复制代码






                                       
                                       

                                       
                                       
                                       




回复

使用道具 举报

懒得打字嘛,点击右侧快捷回复 【右侧内容,后台自定义】
您需要登录后才可以回帖 登录 | 立即加入

本版积分规则

Archiver|小黑屋| 蓝光电影网 |网站地图

Copyright © 2021 Comsenz Inc. Powered by 蓝光电影网

蓝光电影网

本站内容由用户自主分享和转载自互联网,转载目的在于传递更多信息,并不代表本网赞同其观点和对其真实性负责。

如有侵权、违反国家法律政策行为,请联系我们,我们会第一时间及时清除和处理!

举报反馈邮箱:[email protected]

快速回复 返回顶部 返回列表