找回密码

蓝光电影网

查看: 2|回复: 0

[2160p] 玩具总动员3/反斗奇兵3 Toy.Story.3.2010.2160p.BluRay.x265.10bit.SDR.TrueHD.7.1.Atmos-SWTYBLZ 17.01GB

[复制链接]
蓝光币
382
发表于 2019-6-1 03:18:17 | 显示全部楼层 |阅读模式


◎译  名 玩具总带动3 / 反斗奇兵3(港) / 玩具的故事3
◎片  名 Toy Story 3
◎年  代 2010
◎产  地 美国
◎类  别 笑剧 / 动画 / 奇异 / 冒险
◎语  言 英语 / 西班牙语
◎上映日期 2010-06-16(中国大陆) / 2010-06-18(美国)
◎IMDb评分  8.3/10 from 679655 users
◎IMDb链接  http://www.imdb.com/title/tt0435761
◎豆瓣评分 8.8/10 from 256164 users
◎豆瓣链接 https://movie.douban.com/subject/1858711/
◎片  长 103分钟
◎导  演 李·昂克里奇 Lee Unkrich
◎编  剧 迈克尔·阿恩特 Michael Arndt / 约翰·拉塞特 John Lasseter / 安德鲁·斯坦顿 Andrew Stanton / 李·昂克里奇 Lee Unkrich
◎主  演 汤姆·汉克斯 Tom Hanks
      蒂姆·艾伦 Tim Allen
      琼·库萨克 Joan Cusack
      尼德·巴蒂 Ned Beatty
      唐·里克斯 Don Rickles
      迈克尔·基顿 Michael Keaton

◎标  签 动画 | 美国 | Pixar | 迪斯尼 | 长大 | 动人 | 笑剧 | 3D
◎简  介  
  距上一次的冒险已经曩昔11个年头,转眼间安迪(约翰·莫里斯 John Morris 配音)酿成了17岁的阳光男孩。这年炎天,安迪行将起头大门生活,他必须将自己的房间整理整洁留给妹妹。此前,伍迪(汤姆·汉克斯 Tom Hanks 配音)与巴斯光年(蒂姆·艾伦 Tim Allen 配音)等玩具一向期待安迪再和他们顽耍,可是随着光阴的流逝,他们被萧瑟在箱子里很久了。安迪非常顾惜这些童年的玩伴,因而预备将他们收在阁楼。谁曾想,妈妈却把玩具们看成废物扔到街道上。玩具们误解了安迪,因而愤然出走,宁可被捐赠到阳光之家幼儿园。
伍迪极力劝慰大师,却见效甚微,只得单独黯然分开。巴斯光年他们原本以为将重新回到往昔的欢畅时光,不意却堕入一场诡计当中……
◎获奖情况  
  第83届奥斯卡金像奖(2011)
  最好影片(提名) 达拉·K·安德森
  最好改编剧本(提名) 安德鲁·斯坦顿 / 迈克尔·阿恩特 / 李·昂克里奇 / 约翰·拉塞特
  最好动画长片 李·昂克里奇
  最好音效剪辑(提名) 迈克尔·席维斯 / Tom Myers
  最好原创歌曲 兰迪·纽曼
  第68届金球奖(2011)
  电影类 最好动画长片
  第34届日本电影学院奖(2011)
  最好外语片(提名)
  第38届动画安妮奖(2011)
  最好动画长片(提名)
  最好导演(提名) 李·昂克里奇
  最好编剧(提名) 迈克尔·阿恩特
  第20届MTV电影奖(2011)
  MTV电影奖 最好反派(提名) 尼德·巴蒂
  第11届美国电影学会奖(2010)
  年度佳片
  第9届华盛顿影评人协会奖(2010)
  最好影片(提名)
  最好改编剧本(提名) 安德鲁·斯坦顿 / 迈克尔·阿恩特 / 李·昂克里奇 / 约翰·拉塞特
  最好动画片
  最好动画片(提名)
  第31届波士顿影评人协会奖(2010)
  最好影片(提名)
  最好动画片
  第15届圣地亚哥影评人协会奖(2010)
  最好原创剧本(提名) 迈克尔·阿恩特
  最好动画片
  第23届芝加哥影评人协会奖(2010)
  最好改编剧本(提名) 迈克尔·阿恩特
  最好动画片
  第44届堪萨斯影评人协会奖(2011)
  最好动画片
  第10届凤凰城影评人协会奖(2010)
  最好原创歌曲(提名) 兰迪·纽曼
  最好动画片
  十佳影片
  第19届东南影评人协会奖(2010)
  最好动画片
  十大佳片
  第12届美国青少年挑选奖(2010)
  最好动画片

  1. Video
  2. ID                                       : 1
  3. Format                                   : HEVC
  4. Format/Info                              : High Efficiency Video Coding
  5. Format profile                           : Main [email protected]@High
  6. Codec ID                                 : V_MPEGH/ISO/HEVC
  7. Duration                                 : 1 h 43 min
  8. Bit rate                                 : 15.4 Mb/s
  9. Width                                    : 3 840 pixels
  10. Height                                   : 2 160 pixels
  11. Display aspect ratio                     : 16:9
  12. Frame rate mode                          : Constant
  13. Frame rate                               : 23.976 (24000/1001) FPS
  14. Color space                              : YUV
  15. Chroma subsampling                       : 4:2:0
  16. Bit depth                                : 10 bits
  17. Bits/(Pixel*Frame)                       : 0.077
  18. Stream size                              : 11.1 GiB (65%)
  19. Title                                    : Toy.Story.3.2010.2160p.BluRay.x265.10bit.SDR.TrueHD.7.1.Atmos-SWTYBLZ
  20. Writing library                          : x265 3.0ed72af837053:[Windows][GCC 8.2.0][64 bit] 10bit
  21. Encoding settings                        : cpuid=1111039 / frame-threads=16 / numa-pools=24,24,24,24 / wpp / no-pmode / no-pme / no-psnr / no-ssim / log-level=2 / input-csp=1 / input-res=3840x2160 / interlace=0 / total-frames=148203 / level-idc=51 / high-tier=1 / uhd-bd=0 / ref=3 / no-allow-non-conformance / repeat-headers / annexb / aud / hrd / info / hash=0 / no-temporal-layers / no-open-gop / min-keyint=1 / keyint=24 / gop-lookahead=0 / bframes=6 / b-adapt=2 / b-pyramid / bframe-bias=0 / rc-lookahead=25 / lookahead-slices=4 / scenecut=40 / radl=0 / no-splice / no-intra-refresh / ctu=64 / min-cu-size=8 / no-rect / no-amp / max-tu-size=32 / tu-inter-depth=1 / tu-intra-depth=1 / limit-tu=0 / rdoq-level=0 / dynamic-rd=0.00 / no-ssim-rd / signhide / no-tskip / nr-intra=0 / nr-inter=0 / no-constrained-intra / strong-intra-smoothing / max-merge=2 / limit-refs=3 / no-limit-modes / me=1 / subme=2 / merange=57 / temporal-mvp / weightp / no-weightb / no-analyze-src-pics / deblock=1:1 / no-sao / no-sao-non-deblock / rd=3 / no-early-skip / rskip / no-fast-intra / no-tskip-fast / no-cu-lossless / no-b-intra / no-splitrd-skip / rdpenalty=0 / psy-rd=0.40 / psy-rdoq=0.00 / no-rd-refine / no-lossless / cbqpoffs=0 / crqpoffs=0 / rc=crf / crf=16.0 / qcomp=0.60 / qpstep=4 / stats-write=0 / stats-read=0 / vbv-maxrate=160000 / vbv-bufsize=160000 / vbv-init=0.9 / crf-max=0.0 / crf-min=0.0 / ipratio=1.40 / pbratio=1.30 / aq-mode=1 / aq-strength=0.40 / cutree / zone-count=0 / no-strict-cbr / qg-size=32 / no-rc-grain / qpmax=69 / qpmin=0 / no-const-vbv / sar=1 / overscan=0 / videoformat=5 / range=0 / colorprim=2 / transfer=2 / colormatrix=2 / chromaloc=0 / display-window=0 / max-cll=0,0 / min-luma=0 / max-luma=1023 / log2-max-poc-lsb=8 / vui-timing-info / vui-hrd-info / slices=1 / opt-qp-pps / opt-ref-list-length-pps / no-multi-pass-opt-rps / scenecut-bias=0.05 / no-opt-cu-delta-qp / no-aq-motion / no-hdr / no-hdr-opt / no-dhdr10-opt / no-idr-recovery-sei / analysis-reuse-level=5 / scale-factor=0 / refine-intra=0 / refine-inter=0 / refine-mv=0 / refine-ctu-distortion=0 / no-limit-sao / ctu-info=0 / no-lowpass-dct / refine-analysis-type=0 / copy-pic=1 / max-ausize-factor=1.0 / no-dynamic-refine / no-single-sei / no-hevc-aq / qp-adaptation-range=1.00
  22. Default                                  : Yes
  23. Forced                                   : No
  24. Audio #1
  25. ID                                       : 2
  26. Format                                   : MLP FBA 16-ch
  27. Format/Info                              : Meridian Lossless Packing FBA with 16-channel presentation
  28. Commercial name                          : Dolby TrueHD with Dolby Atmos
  29. Codec ID                                 : A_TRUEHD
  30. Duration                                 : 1 h 43 min
  31. Bit rate mode                            : Variable
  32. Bit rate                                 : 7 402 kb/s
  33. Maximum bit rate                         : 8 814 kb/s
  34. Channel(s)                               : 8 channels
  35. Channel layout                           : L R C LFE Ls Rs Lb Rb
  36. Sampling rate                            : 48.0 kHz
  37. Frame rate                               : 1 200.000 FPS (40 SPF)
  38. Compression mode                         : Lossless
  39. Stream size                              : 5.33 GiB (31%)
  40. Title                                    : Toy.Story.3.2010.2160p.BluRay.x265.10bit.SDR.TrueHD.7.1.Atmos-SWTYBLZ
  41. Language                                 : English
  42. Default                                  : Yes
  43. Forced                                   : No
  44. Number of dynamic objects                : 13
  45. Bed channel count                        : 1 channel
  46. Bed channel configuration                : LFE
  47. Audio #2
  48. ID                                       : 3
  49. Format                                   : AC-3
  50. Format/Info                              : Audio Coding 3
  51. Commercial name                          : Dolby Digital
  52. Codec ID                                 : A_AC3
  53. Duration                                 : 1 h 43 min
  54. Bit rate mode                            : Constant
  55. Bit rate                                 : 640 kb/s
  56. Channel(s)                               : 6 channels
  57. Channel layout                           : L R C LFE Ls Rs
  58. Sampling rate                            : 48.0 kHz
  59. Frame rate                               : 31.250 FPS (1536 SPF)
  60. Bit depth                                : 16 bits
  61. Compression mode                         : Lossy
  62. Stream size                              : 472 MiB (3%)
  63. Title                                    : Toy.Story.3.2010.2160p.BluRay.x265.10bit.SDR.TrueHD.7.1.Atmos-SWTYBLZ
  64. Language                                 : English
  65. Service kind                             : Complete Main
  66. Default                                  : No
  67. Forced                                   : No
  68. Text #1
  69. ID                                       : 4
  70. Format                                   : UTF-8
  71. Codec ID                                 : S_TEXT/UTF8
  72. Codec ID/Info                            : UTF-8 Plain Text
  73. Duration                                 : 1 h 36 min
  74. Bit rate                                 : 62 b/s
  75. Count of elements                        : 1274
  76. Stream size                              : 44.2 KiB (0%)
  77. Title                                    : English-SRT
  78. Language                                 : English
  79. Default                                  : Yes
  80. Forced                                   : No
  81. Text #2
  82. ID                                       : 5
  83. Format                                   : PGS
  84. Muxing mode                              : zlib
  85. Codec ID                                 : S_HDMV/PGS
  86. Codec ID/Info                            : Picture based subtitle format used on BDs/HD-DVDs
  87. Duration                                 : 1 h 36 min
  88. Bit rate                                 : 49.7 kb/s
  89. Count of elements                        : 3095
  90. Stream size                              : 34.3 MiB (0%)
  91. Title                                    : English-PGS
  92. Language                                 : English
  93. Default                                  : No
  94. Forced                                   : No
  95. Text #3
  96. ID                                       : 6
  97. Format                                   : PGS
  98. Muxing mode                              : zlib
  99. Codec ID                                 : S_HDMV/PGS
  100. Codec ID/Info                            : Picture based subtitle format used on BDs/HD-DVDs
  101. Duration                                 : 1 h 36 min
  102. Bit rate                                 : 41.9 kb/s
  103. Count of elements                        : 2554
  104. Stream size                              : 28.9 MiB (0%)
  105. Title                                    : French-PGS
  106. Language                                 : French
  107. Default                                  : No
  108. Forced                                   : No
  109. Text #4
  110. ID                                       : 7
  111. Format                                   : PGS
  112. Muxing mode                              : zlib
  113. Codec ID                                 : S_HDMV/PGS
  114. Codec ID/Info                            : Picture based subtitle format used on BDs/HD-DVDs
  115. Duration                                 : 1 h 36 min
  116. Bit rate                                 : 36.3 kb/s
  117. Count of elements                        : 2250
  118. Stream size                              : 25.1 MiB (0%)
  119. Title                                    : Spanish-PGS
  120. Language                                 : Spanish
  121. Default                                  : No
  122. Forced                                   : No
  123. Menu
  124. 00:00:00.000                             : en:Chapter 01
  125. 00:04:54.335                             : en:Chapter 02
  126. 00:06:20.880                             : en:Chapter 03
  127. 00:11:38.239                             : en:Chapter 04
  128. 00:15:18.000                             : en:Chapter 05
  129. 00:18:35.030                             : en:Chapter 06
  130. 00:19:24.705                             : en:Chapter 07
  131. 00:26:17.909                             : en:Chapter 08
  132. 00:29:00.238                             : en:Chapter 09
  133. 00:31:48.656                             : en:Chapter 10
  134. 00:33:23.167                             : en:Chapter 11
  135. 00:35:50.898                             : en:Chapter 12
  136. 00:37:30.957                             : en:Chapter 13
  137. 00:40:11.951                             : en:Chapter 14
  138. 00:41:13.471                             : en:Chapter 15
  139. 00:43:38.324                             : en:Chapter 16
  140. 00:44:50.104                             : en:Chapter 17
  141. 00:48:20.355                             : en:Chapter 18
  142. 00:52:28.895                             : en:Chapter 19
  143. 00:53:52.562                             : en:Chapter 20
  144. 00:57:12.804                             : en:Chapter 21
  145. 00:58:21.164                             : en:Chapter 22
  146. 01:01:10.708                             : en:Chapter 23
  147. 01:02:07.140                             : en:Chapter 24
  148. 01:02:57.857                             : en:Chapter 25
  149. 01:06:35.866                             : en:Chapter 26
  150. 01:11:22.444                             : en:Chapter 27
  151. 01:15:58.095                             : en:Chapter 28
  152. 01:17:36.443                             : en:Chapter 29
  153. 01:19:44.029                             : en:Chapter 30
  154. 01:23:02.519                             : en:Chapter 31
  155. 01:25:00.345                             : en:Chapter 32
  156. 01:28:16.249                             : en:Chapter 33
  157. 01:34:19.111                             : en:Chapter 34
复制代码









                                       
                                       

                                       
                                       
                                       




回复

使用道具 举报

懒得打字嘛,点击右侧快捷回复 【右侧内容,后台自定义】
您需要登录后才可以回帖 登录 | 立即加入

本版积分规则

Archiver|小黑屋| 蓝光电影网 |网站地图

Copyright © 2021 Comsenz Inc. Powered by 蓝光电影网

蓝光电影网

本站内容由用户自主分享和转载自互联网,转载目的在于传递更多信息,并不代表本网赞同其观点和对其真实性负责。

如有侵权、违反国家法律政策行为,请联系我们,我们会第一时间及时清除和处理!

举报反馈邮箱:[email protected]

快速回复 返回顶部 返回列表