找回密码

蓝光电影网

查看: 7|回复: 0

[2160p] 玩具总动员/反斗奇兵 Toy.Story.1995.2160p.BluRay.x264.8bit.SDR.DTS-HD.MA.TrueHD.7.1.Atmos-SWTYBLZ 17.40GB

[复制链接]
蓝光币
382
发表于 2019-6-1 03:14:24 | 显示全部楼层 |阅读模式


◎译  名 玩具总带动 / 反斗奇兵(港) / 玩具的故事
◎片  名 Toy Story
◎年  代 1995
◎产  地 美国
◎类  别 笑剧 / 动画 / 家庭
◎语  言 英语
◎上映日期 1995-11-22(美国)
◎IMDb评分  8.3/10 from 790607 users
◎IMDb链接  http://www.imdb.com/title/tt0114709
◎豆瓣评分 8.3/10 from 199860 users
◎豆瓣链接 https://movie.douban.com/subject/1291575/
◎片  长 81分钟
◎导  演 约翰·拉塞特 John Lasseter
◎编  剧 乔斯·韦登 Joss Whedon / 安德鲁·斯坦顿 Andrew Stanton / Joel Cohen / Alec Sokolow
◎主  演 汤姆·汉克斯 Tom Hanks
      蒂姆·艾伦 Tim Allen
      唐·里克斯 Don Rickles
      吉姆·法尼 Jim Varney

◎标  签 动画 | 美国 | 迪斯尼 | pixar | 玩具总带动 | 动画片 | 美国电影 | DISNEY
◎简  介  
  小仆人家境敷裕,具有一屋的玩具。其中他最爱的是牛仔玩偶胡迪,胡迪是以成为众玩具的“老迈”。当小仆人出门在外时,一屋的玩具自成天下,过着自己的生活。一天,小仆人带回了一个新的玩意:太空战警巴斯光年。巴斯光年长相新奇,功用先辈,令小仆人爱不释手,威胁到了胡迪的职位。胡迪想方设法要赶走巴斯,一不谨慎二人一路掉出了房间窗口外,邻人的恶狗在狂吠,邻人的小孩是一个玩具凌虐狂,胡迪巴斯能不能化敌为友,消灾解难?
◎获奖情况  
  第68届奥斯卡金像奖(1996)
  最好原创剧本(提名) 乔斯·韦登 / 约翰·拉塞特 / 彼特·道格特 / 乔·兰福特 / 安德鲁·斯坦顿 / 乔尔·科恩 / 亚历克·索科洛
  音乐/笑剧片最好原创配乐(提名) 兰迪·纽曼
  最好原创歌曲(提名) 兰迪·纽曼
  出格成就奖 约翰·拉塞特
  第24届动画安妮奖(1996)
  最好动画长片
  最好导演 约翰·拉塞特
  最好编剧 乔斯·韦登 / 安德鲁·斯坦顿 / 亚历克·索科洛 / 乔尔·科恩
  最好配音(提名) 汤姆·汉克斯
  最好配乐 兰迪·纽曼
  最好建造 邦妮·阿诺德 / Ralph Guggenheim
  最好艺术指导 拉夫·埃格尔斯顿
  最好小我成就 彼特·道格特
  最好动画技术功效

  1. Video
  2. ID                                       : 1
  3. Format                                   : AVC
  4. Format/Info                              : Advanced Video Codec
  5. Format profile                           : [email protected]
  6. Format settings                          : CABAC / 5 Ref Frames
  7. Format settings, CABAC                   : Yes
  8. Format settings, RefFrames               : 5 frames
  9. Codec ID                                 : V_MPEG4/ISO/AVC
  10. Duration                                 : 1 h 21 min
  11. Bit rate                                 : 17.9 Mb/s
  12. Width                                    : 3 840 pixels
  13. Height                                   : 2 160 pixels
  14. Display aspect ratio                     : 16:9
  15. Frame rate mode                          : Constant
  16. Frame rate                               : 23.976 (24000/1001) FPS
  17. Color space                              : YUV
  18. Chroma subsampling                       : 4:2:0
  19. Bit depth                                : 8 bits
  20. Scan type                                : Progressive
  21. Bits/(Pixel*Frame)                       : 0.090
  22. Stream size                              : 10.1 GiB (58%)
  23. Title                                    : Toy.Story.1995.2160p.BluRay.x264.8bit.SDR.DTS-HD.MA.TrueHD.7.1.Atmos-SWTYBLZ
  24. Writing library                          : x264 core 157 r2935 545de2f
  25. Encoding settings                        : cabac=1 / ref=5 / deblock=1:1:1 / analyse=0x3:0x113 / me=umh / subme=10 / psy=1 / psy_rd=0.40:0.00 / mixed_ref=1 / me_range=48 / chroma_me=1 / trellis=2 / 8x8dct=1 / cqm=0 / deadzone=21,11 / fast_pskip=1 / chroma_qp_offset=-2 / threads=48 / lookahead_threads=5 / sliced_threads=0 / nr=0 / decimate=0 / interlaced=0 / bluray_compat=0 / constrained_intra=0 / bframes=5 / b_pyramid=2 / b_adapt=2 / b_bias=0 / direct=3 / weightb=1 / open_gop=0 / weightp=2 / keyint=250 / keyint_min=23 / scenecut=40 / intra_refresh=0 / rc_lookahead=50 / rc=crf / mbtree=1 / crf=18.0 / qcomp=0.60 / qpmin=0 / qpmax=69 / qpstep=4 / ip_ratio=1.40 / aq=1:0.60
  26. Default                                  : Yes
  27. Forced                                   : No
  28. Audio #1
  29. ID                                       : 2
  30. Format                                   : MLP FBA 16-ch
  31. Format/Info                              : Meridian Lossless Packing FBA with 16-channel presentation
  32. Commercial name                          : Dolby TrueHD with Dolby Atmos
  33. Codec ID                                 : A_TRUEHD
  34. Duration                                 : 1 h 21 min
  35. Bit rate mode                            : Variable
  36. Bit rate                                 : 7 637 kb/s
  37. Maximum bit rate                         : 9 612 kb/s
  38. Channel(s)                               : 8 channels
  39. Channel layout                           : L R C LFE Ls Rs Lb Rb
  40. Sampling rate                            : 48.0 kHz
  41. Frame rate                               : 1 200.000 FPS (40 SPF)
  42. Compression mode                         : Lossless
  43. Stream size                              : 4.33 GiB (25%)
  44. Title                                    : Toy.Story.1995.2160p.BluRay.x264.8bit.SDR.DTS-HD.MA.TrueHD.7.1.Atmos-SWTYBLZ
  45. Language                                 : English
  46. Default                                  : Yes
  47. Forced                                   : No
  48. Number of dynamic objects                : 13
  49. Bed channel count                        : 1 channel
  50. Bed channel configuration                : LFE
  51. Audio #2
  52. ID                                       : 3
  53. Format                                   : DTS XLL
  54. Format/Info                              : Digital Theater Systems
  55. Commercial name                          : DTS-HD Master Audio
  56. Codec ID                                 : A_DTS
  57. Duration                                 : 1 h 21 min
  58. Bit rate mode                            : Variable
  59. Bit rate                                 : 4 325 kb/s
  60. Channel(s)                               : 8 channels
  61. Channel layout                           : C L R LFE Lb Rb Lss Rss
  62. Sampling rate                            : 48.0 kHz
  63. Frame rate                               : 93.750 FPS (512 SPF)
  64. Bit depth                                : 24 bits
  65. Compression mode                         : Lossless
  66. Stream size                              : 2.45 GiB (14%)
  67. Title                                    : Toy.Story.1995.2160p.BluRay.x264.8bit.SDR.DTS-HD.MA.TrueHD.7.1.Atmos-SWTYBLZ
  68. Language                                 : English
  69. Default                                  : No
  70. Forced                                   : No
  71. Audio #3
  72. ID                                       : 4
  73. Format                                   : AC-3
  74. Format/Info                              : Audio Coding 3
  75. Commercial name                          : Dolby Digital
  76. Codec ID                                 : A_AC3
  77. Duration                                 : 1 h 21 min
  78. Bit rate mode                            : Constant
  79. Bit rate                                 : 640 kb/s
  80. Channel(s)                               : 6 channels
  81. Channel layout                           : L R C LFE Ls Rs
  82. Sampling rate                            : 48.0 kHz
  83. Frame rate                               : 31.250 FPS (1536 SPF)
  84. Bit depth                                : 16 bits
  85. Compression mode                         : Lossy
  86. Stream size                              : 371 MiB (2%)
  87. Title                                    : Toy.Story.1995.2160p.BluRay.x264.8bit.SDR.DTS-HD.MA.TrueHD.7.1.Atmos-SWTYBLZ
  88. Language                                 : English
  89. Service kind                             : Complete Main
  90. Default                                  : No
  91. Forced                                   : No
  92. Text #1
  93. ID                                       : 5
  94. Format                                   : UTF-8
  95. Codec ID                                 : S_TEXT/UTF8
  96. Codec ID/Info                            : UTF-8 Plain Text
  97. Duration                                 : 1 h 18 min
  98. Bit rate                                 : 71 b/s
  99. Count of elements                        : 1185
  100. Stream size                              : 40.9 KiB (0%)
  101. Title                                    : English-SRT
  102. Language                                 : English
  103. Default                                  : Yes
  104. Forced                                   : No
  105. Text #2
  106. ID                                       : 6
  107. Format                                   : PGS
  108. Muxing mode                              : zlib
  109. Codec ID                                 : S_HDMV/PGS
  110. Codec ID/Info                            : Picture based subtitle format used on BDs/HD-DVDs
  111. Duration                                 : 1 h 18 min
  112. Bit rate                                 : 54.7 kb/s
  113. Count of elements                        : 2772
  114. Stream size                              : 30.5 MiB (0%)
  115. Title                                    : English-SDH-PGS
  116. Language                                 : English
  117. Default                                  : No
  118. Forced                                   : No
  119. Text #3
  120. ID                                       : 7
  121. Format                                   : PGS
  122. Muxing mode                              : zlib
  123. Codec ID                                 : S_HDMV/PGS
  124. Codec ID/Info                            : Picture based subtitle format used on BDs/HD-DVDs
  125. Duration                                 : 1 h 18 min
  126. Bit rate                                 : 43.0 kb/s
  127. Count of elements                        : 2286
  128. Stream size                              : 24.0 MiB (0%)
  129. Title                                    : English-PGS
  130. Language                                 : English
  131. Default                                  : No
  132. Forced                                   : No
  133. Text #4
  134. ID                                       : 8
  135. Format                                   : PGS
  136. Muxing mode                              : zlib
  137. Codec ID                                 : S_HDMV/PGS
  138. Codec ID/Info                            : Picture based subtitle format used on BDs/HD-DVDs
  139. Duration                                 : 1 h 18 min
  140. Bit rate                                 : 31.9 kb/s
  141. Count of elements                        : 1974
  142. Stream size                              : 17.8 MiB (0%)
  143. Title                                    : French-PGS
  144. Language                                 : French
  145. Default                                  : No
  146. Forced                                   : No
  147. Text #5
  148. ID                                       : 9
  149. Format                                   : PGS
  150. Muxing mode                              : zlib
  151. Codec ID                                 : S_HDMV/PGS
  152. Codec ID/Info                            : Picture based subtitle format used on BDs/HD-DVDs
  153. Duration                                 : 1 h 18 min
  154. Bit rate                                 : 40.4 kb/s
  155. Count of elements                        : 2098
  156. Stream size                              : 22.6 MiB (0%)
  157. Title                                    : Spanish-PGS
  158. Language                                 : Spanish
  159. Default                                  : No
  160. Forced                                   : No
  161. Text #6
  162. ID                                       : 10
  163. Format                                   : PGS
  164. Muxing mode                              : zlib
  165. Codec ID                                 : S_HDMV/PGS
  166. Codec ID/Info                            : Picture based subtitle format used on BDs/HD-DVDs
  167. Duration                                 : 1 h 18 min
  168. Bit rate                                 : 25.9 kb/s
  169. Count of elements                        : 2072
  170. Stream size                              : 14.5 MiB (0%)
  171. Title                                    : Japanese-PGS
  172. Language                                 : Japanese
  173. Default                                  : No
  174. Forced                                   : No
  175. Text #7
  176. ID                                       : 11
  177. Format                                   : PGS
  178. Muxing mode                              : zlib
  179. Codec ID                                 : S_HDMV/PGS
  180. Codec ID/Info                            : Picture based subtitle format used on BDs/HD-DVDs
  181. Duration                                 : 1 s 335 ms
  182. Bit rate                                 : 47.7 kb/s
  183. Count of elements                        : 2
  184. Stream size                              : 7.78 KiB (0%)
  185. Title                                    : Japanese-PGS
  186. Language                                 : Japanese
  187. Default                                  : No
  188. Forced                                   : No
  189. Menu
  190. 00:00:00.000                             : en:Chapter 01
  191. 00:02:03.081                             : en:Chapter 02
  192. 00:04:00.949                             : en:Chapter 03
  193. 00:06:34.852                             : en:Chapter 04
  194. 00:09:20.101                             : en:Chapter 05
  195. 00:14:17.815                             : en:Chapter 06
  196. 00:20:10.959                             : en:Chapter 07
  197. 00:22:18.045                             : en:Chapter 08
  198. 00:24:25.422                             : en:Chapter 09
  199. 00:26:02.060                             : en:Chapter 10
  200. 00:29:29.768                             : en:Chapter 11
  201. 00:30:09.849                             : en:Chapter 12
  202. 00:35:10.399                             : en:Chapter 13
  203. 00:39:26.238                             : en:Chapter 14
  204. 00:43:00.286                             : en:Chapter 15
  205. 00:43:44.163                             : en:Chapter 16
  206. 00:46:26.533                             : en:Chapter 17
  207. 00:47:21.004                             : en:Chapter 18
  208. 00:49:08.946                             : en:Chapter 19
  209. 00:51:08.982                             : en:Chapter 20
  210. 00:53:50.769                             : en:Chapter 21
  211. 00:56:24.381                             : en:Chapter 22
  212. 00:57:15.598                             : en:Chapter 23
  213. 01:01:41.698                             : en:Chapter 24
  214. 01:02:50.933                             : en:Chapter 25
  215. 01:04:49.927                             : en:Chapter 26
  216. 01:07:59.492                             : en:Chapter 27
  217. 01:13:11.136                             : en:Chapter 28
  218. 01:15:40.827                             : en:Chapter 29
  219. 01:17:09.207                             : en:Chapter 30
复制代码









                                       
                                       

                                       
                                       
                                       




回复

使用道具 举报

懒得打字嘛,点击右侧快捷回复 【右侧内容,后台自定义】
您需要登录后才可以回帖 登录 | 立即加入

本版积分规则

Archiver|小黑屋| 蓝光电影网 |网站地图

Copyright © 2021 Comsenz Inc. Powered by 蓝光电影网

蓝光电影网

本站内容由用户自主分享和转载自互联网,转载目的在于传递更多信息,并不代表本网赞同其观点和对其真实性负责。

如有侵权、违反国家法律政策行为,请联系我们,我们会第一时间及时清除和处理!

举报反馈邮箱:[email protected]

快速回复 返回顶部 返回列表