找回密码

蓝光电影网

查看: 9|回复: 0

[2160p] 蝙蝠侠 Batman.1989.2160p.BluRay.x265.10bit.SDR.DTS-HD.MA.TrueHD.7.1.Atmos-SWTYBLZ 51.49GB

[复制链接]
蓝光币
386
发表于 2019-5-31 12:56:59 | 显示全部楼层 |阅读模式


◎译  名 蝙蝠侠
◎片  名 Batman
◎年  代 1989
◎产  地 美国 / 英国
◎类  别 行动 / 科幻
◎语  言 英语 / 法语
◎上映日期 1989-06-23
◎IMDb评分  7.6/10 from 312494 users
◎IMDb链接  http://www.imdb.com/title/tt0096895
◎豆瓣评分 7.3/10 from 33696 users
◎豆瓣链接 https://movie.douban.com/subject/1297970/
◎片  长 126 分钟
◎导  演 Tim Burton
◎编  剧 Sam Hamm / Warren Skaaren / Bob Kane
◎主  演 迈克尔·基顿 Michael Keaton
      杰克·尼科尔森 Jack Nicholson
      金·贝辛格 Kim Basinger
      罗伯特·乌尔 Robert Wuhl
      帕特·亨格尔 Pat Hingle
      比利·迪·威廉姆斯 Billy Dee Williams
      迈克尔·高夫 Michael Gough
      杰克·帕兰斯 Jack Palance
      杰瑞·霍尔 Jerry Hall
      崔西·沃特 Tracey Walter
      Lee Wallace
      威廉姆·霍金斯 William Hootkins
      Richard Strange
      Carl Chase
      麦克·麦克唐纳德 Mac McDonald

◎标  签 美国 | 科幻 | 蝙蝠侠 | TimBurton | 漫画改编 | 行动 | 1989 | 美国电影
◎简  介  
  在罪行横行的高汉市,有一个令罪犯们心惊胆颤的名字:蝙蝠侠。蝙蝠侠(迈克尔?基顿 Michael Keaton 饰)穿越于最黑暗的角落,四周冲击罪行。在一次冲击罪行的行动中,蝙蝠侠令强盗尼巴(杰克?尼科尔森 Jack Nicholson  饰)落入了化学池。尼巴是以面部神承受损,成了永久咧嘴笑的笑面人,人称“小丑”。
“小丑”杀死了团伙的首领,控制了全部高汉市的黑道。“小丑”操纵化学药品让人失笑而死,他用这类方式攻击了博物馆,幸得蝙蝠侠实时赶到,挫败了“小丑”的诡计。在女友碧姬(金?贝辛格 Kim Basinger 饰)家里时,“小丑”忽然攻击,蝙蝠侠奇妙躲过了攻击,意外发现“小丑”就是杀死自己的怙恃的仇人。
“小丑”此次虏走了蝙蝠侠的女友碧姬,约定蝙蝠在教堂楼顶决一死战!
◎获奖情况  
  第62届奥斯卡金像奖(1990)
  最好艺术指导 安东·福斯特 / Peter Young

  1. Video
  2. ID                                       : 1
  3. Format                                   : HEVC
  4. Format/Info                              : High Efficiency Video Coding
  5. Format profile                           : Main [email protected]@High
  6. Codec ID                                 : V_MPEGH/ISO/HEVC
  7. Duration                                 : 2 h 6 min
  8. Bit rate                                 : 49.1 Mb/s
  9. Width                                    : 3 840 pixels
  10. Height                                   : 2 076 pixels
  11. Display aspect ratio                     : 1.85:1
  12. Frame rate mode                          : Constant
  13. Frame rate                               : 23.976 (24000/1001) FPS
  14. Color space                              : YUV
  15. Chroma subsampling                       : 4:2:0
  16. Bit depth                                : 10 bits
  17. Bits/(Pixel*Frame)                       : 0.257
  18. Stream size                              : 43.3 GiB (85%)
  19. Title                                    : Batman.1989.2160p.BluRay.x265.10bit.SDR.DTS-HD.MA.TrueHD.7.1.Atmos-SWTYBLZ
  20. Writing library                          : x265 3.0ed72af837053:[Windows][GCC 8.2.0][64 bit] 10bit
  21. Encoding settings                        : cpuid=1111039 / frame-threads=16 / numa-pools=44,44 / wpp / no-pmode / no-pme / no-psnr / no-ssim / log-level=2 / input-csp=1 / input-res=3840x2076 / interlace=0 / total-frames=181701 / level-idc=51 / high-tier=1 / uhd-bd=0 / ref=3 / no-allow-non-conformance / repeat-headers / annexb / aud / hrd / info / hash=0 / no-temporal-layers / no-open-gop / min-keyint=1 / keyint=24 / gop-lookahead=0 / bframes=4 / b-adapt=2 / b-pyramid / bframe-bias=0 / rc-lookahead=25 / lookahead-slices=4 / scenecut=40 / radl=0 / no-splice / no-intra-refresh / ctu=64 / min-cu-size=8 / no-rect / no-amp / max-tu-size=32 / tu-inter-depth=1 / tu-intra-depth=1 / limit-tu=0 / rdoq-level=0 / dynamic-rd=0.00 / no-ssim-rd / signhide / no-tskip / nr-intra=0 / nr-inter=0 / no-constrained-intra / strong-intra-smoothing / max-merge=2 / limit-refs=3 / no-limit-modes / me=1 / subme=2 / merange=57 / temporal-mvp / weightp / no-weightb / no-analyze-src-pics / deblock=0:0 / no-sao / no-sao-non-deblock / rd=3 / no-early-skip / rskip / no-fast-intra / no-tskip-fast / no-cu-lossless / no-b-intra / no-splitrd-skip / rdpenalty=0 / psy-rd=2.00 / psy-rdoq=0.00 / no-rd-refine / no-lossless / cbqpoffs=0 / crqpoffs=0 / rc=crf / crf=16.0 / qcomp=0.60 / qpstep=4 / stats-write=0 / stats-read=0 / vbv-maxrate=160000 / vbv-bufsize=160000 / vbv-init=0.9 / crf-max=0.0 / crf-min=0.0 / ipratio=1.40 / pbratio=1.30 / aq-mode=1 / aq-strength=1.00 / cutree / zone-count=0 / no-strict-cbr / qg-size=32 / no-rc-grain / qpmax=69 / qpmin=0 / no-const-vbv / sar=1 / overscan=0 / videoformat=5 / range=0 / colorprim=2 / transfer=2 / colormatrix=2 / chromaloc=0 / display-window=0 / max-cll=0,0 / min-luma=0 / max-luma=1023 / log2-max-poc-lsb=8 / vui-timing-info / vui-hrd-info / slices=1 / opt-qp-pps / opt-ref-list-length-pps / no-multi-pass-opt-rps / scenecut-bias=0.05 / no-opt-cu-delta-qp / no-aq-motion / no-hdr / no-hdr-opt / no-dhdr10-opt / no-idr-recovery-sei / analysis-reuse-level=5 / scale-factor=0 / refine-intra=0 / refine-inter=0 / refine-mv=0 / refine-ctu-distortion=0 / no-limit-sao / ctu-info=0 / no-lowpass-dct / refine-analysis-type=0 / copy-pic=1 / max-ausize-factor=1.0 / no-dynamic-refine / no-single-sei / no-hevc-aq / qp-adaptation-range=1.00
  22. Default                                  : Yes
  23. Forced                                   : No
  24. Audio #1
  25. ID                                       : 2
  26. Format                                   : MLP FBA 16-ch
  27. Format/Info                              : Meridian Lossless Packing FBA with 16-channel presentation
  28. Commercial name                          : Dolby TrueHD with Dolby Atmos
  29. Codec ID                                 : A_TRUEHD
  30. Duration                                 : 2 h 6 min
  31. Bit rate mode                            : Variable
  32. Bit rate                                 : 3 772 kb/s
  33. Maximum bit rate                         : 6 912 kb/s
  34. Channel(s)                               : 8 channels
  35. Channel layout                           : L R C LFE Ls Rs Lb Rb
  36. Sampling rate                            : 48.0 kHz
  37. Frame rate                               : 1 200.000 FPS (40 SPF)
  38. Compression mode                         : Lossless
  39. Stream size                              : 3.33 GiB (6%)
  40. Title                                    : Batman.1989.2160p.BluRay.x265.10bit.SDR.DTS-HD.MA.TrueHD.7.1.Atmos-SWTYBLZ
  41. Language                                 : English
  42. Default                                  : Yes
  43. Forced                                   : No
  44. Number of dynamic objects                : 15
  45. Bed channel count                        : 1 channel
  46. Bed channel configuration                : LFE
  47. Audio #2
  48. ID                                       : 3
  49. Format                                   : DTS XLL
  50. Format/Info                              : Digital Theater Systems
  51. Commercial name                          : DTS-HD Master Audio
  52. Codec ID                                 : A_DTS
  53. Duration                                 : 2 h 6 min
  54. Bit rate mode                            : Variable
  55. Bit rate                                 : 4 301 kb/s
  56. Channel(s)                               : 8 channels
  57. Channel layout                           : C L R LFE Lb Rb Lss Rss
  58. Sampling rate                            : 48.0 kHz
  59. Frame rate                               : 93.750 FPS (512 SPF)
  60. Bit depth                                : 24 bits
  61. Compression mode                         : Lossless
  62. Stream size                              : 3.79 GiB (7%)
  63. Title                                    : Batman.1989.2160p.BluRay.x265.10bit.SDR.DTS-HD.MA.TrueHD.7.1.Atmos-SWTYBLZ
  64. Language                                 : English
  65. Default                                  : No
  66. Forced                                   : No
  67. Audio #3
  68. ID                                       : 4
  69. Format                                   : AC-3
  70. Format/Info                              : Audio Coding 3
  71. Commercial name                          : Dolby Digital
  72. Codec ID                                 : A_AC3
  73. Duration                                 : 2 h 6 min
  74. Bit rate mode                            : Constant
  75. Bit rate                                 : 640 kb/s
  76. Channel(s)                               : 6 channels
  77. Channel layout                           : L R C LFE Ls Rs
  78. Sampling rate                            : 48.0 kHz
  79. Frame rate                               : 31.250 FPS (1536 SPF)
  80. Bit depth                                : 16 bits
  81. Compression mode                         : Lossy
  82. Stream size                              : 578 MiB (1%)
  83. Title                                    : Batman.1989.2160p.BluRay.x265.10bit.SDR.DTS-HD.MA.TrueHD.7.1.Atmos-SWTYBLZ
  84. Language                                 : English
  85. Service kind                             : Complete Main
  86. Default                                  : No
  87. Forced                                   : No
  88. Text #1
  89. ID                                       : 5
  90. Format                                   : UTF-8
  91. Codec ID                                 : S_TEXT/UTF8
  92. Codec ID/Info                            : UTF-8 Plain Text
  93. Duration                                 : 1 h 58 min
  94. Bit rate                                 : 39 b/s
  95. Count of elements                        : 1015
  96. Stream size                              : 34.4 KiB (0%)
  97. Title                                    : English-SRT
  98. Language                                 : English
  99. Default                                  : Yes
  100. Forced                                   : No
  101. Text #2
  102. ID                                       : 6
  103. Format                                   : UTF-8
  104. Codec ID                                 : S_TEXT/UTF8
  105. Codec ID/Info                            : UTF-8 Plain Text
  106. Duration                                 : 1 h 59 min
  107. Bit rate                                 : 41 b/s
  108. Count of elements                        : 1108
  109. Stream size                              : 36.4 KiB (0%)
  110. Title                                    : English-SDH-SRT
  111. Language                                 : English
  112. Default                                  : No
  113. Forced                                   : No
  114. Text #3
  115. ID                                       : 7
  116. Format                                   : PGS
  117. Muxing mode                              : zlib
  118. Codec ID                                 : S_HDMV/PGS
  119. Codec ID/Info                            : Picture based subtitle format used on BDs/HD-DVDs
  120. Duration                                 : 1 h 59 min
  121. Bit rate                                 : 22.4 kb/s
  122. Count of elements                        : 2216
  123. Stream size                              : 19.1 MiB (0%)
  124. Title                                    : English-PGS
  125. Language                                 : English
  126. Default                                  : No
  127. Forced                                   : No
  128. Text #4
  129. ID                                       : 8
  130. Format                                   : PGS
  131. Muxing mode                              : zlib
  132. Codec ID                                 : S_HDMV/PGS
  133. Codec ID/Info                            : Picture based subtitle format used on BDs/HD-DVDs
  134. Duration                                 : 1 h 58 min
  135. Bit rate                                 : 18.9 kb/s
  136. Count of elements                        : 2056
  137. Stream size                              : 16.1 MiB (0%)
  138. Title                                    : French-PGS
  139. Language                                 : French
  140. Default                                  : No
  141. Forced                                   : No
  142. Text #5
  143. ID                                       : 9
  144. Format                                   : PGS
  145. Muxing mode                              : zlib
  146. Codec ID                                 : S_HDMV/PGS
  147. Codec ID/Info                            : Picture based subtitle format used on BDs/HD-DVDs
  148. Duration                                 : 2 h 3 min
  149. Bit rate                                 : 19.1 kb/s
  150. Count of elements                        : 2086
  151. Stream size                              : 16.9 MiB (0%)
  152. Title                                    : Spanish-PGS
  153. Language                                 : Spanish
  154. Default                                  : No
  155. Forced                                   : No
  156. Text #6
  157. ID                                       : 10
  158. Format                                   : PGS
  159. Muxing mode                              : zlib
  160. Codec ID                                 : S_HDMV/PGS
  161. Codec ID/Info                            : Picture based subtitle format used on BDs/HD-DVDs
  162. Duration                                 : 2 h 0 min
  163. Bit rate                                 : 19.6 kb/s
  164. Count of elements                        : 2108
  165. Stream size                              : 17.0 MiB (0%)
  166. Title                                    : Spanish-PGS
  167. Language                                 : Spanish
  168. Default                                  : No
  169. Forced                                   : No
  170. Text #7
  171. ID                                       : 11
  172. Format                                   : PGS
  173. Muxing mode                              : zlib
  174. Codec ID                                 : S_HDMV/PGS
  175. Codec ID/Info                            : Picture based subtitle format used on BDs/HD-DVDs
  176. Duration                                 : 2 h 3 min
  177. Bit rate                                 : 18.5 kb/s
  178. Count of elements                        : 2174
  179. Stream size                              : 16.4 MiB (0%)
  180. Title                                    : Italian-PGS
  181. Language                                 : Italian
  182. Default                                  : No
  183. Forced                                   : No
  184. Text #8
  185. ID                                       : 12
  186. Format                                   : PGS
  187. Muxing mode                              : zlib
  188. Codec ID                                 : S_HDMV/PGS
  189. Codec ID/Info                            : Picture based subtitle format used on BDs/HD-DVDs
  190. Duration                                 : 2 h 3 min
  191. Bit rate                                 : 19.4 kb/s
  192. Count of elements                        : 2074
  193. Stream size                              : 17.1 MiB (0%)
  194. Title                                    : German-PGS
  195. Language                                 : German
  196. Default                                  : No
  197. Forced                                   : No
  198. Text #9
  199. ID                                       : 13
  200. Format                                   : PGS
  201. Muxing mode                              : zlib
  202. Codec ID                                 : S_HDMV/PGS
  203. Codec ID/Info                            : Picture based subtitle format used on BDs/HD-DVDs
  204. Duration                                 : 1 h 58 min
  205. Bit rate                                 : 19.1 kb/s
  206. Count of elements                        : 2060
  207. Stream size                              : 16.2 MiB (0%)
  208. Title                                    : Dutch-PGS
  209. Language                                 : Dutch
  210. Default                                  : No
  211. Forced                                   : No
  212. Text #10
  213. ID                                       : 14
  214. Format                                   : PGS
  215. Muxing mode                              : zlib
  216. Codec ID                                 : S_HDMV/PGS
  217. Codec ID/Info                            : Picture based subtitle format used on BDs/HD-DVDs
  218. Duration                                 : 1 h 58 min
  219. Bit rate                                 : 17.0 kb/s
  220. Count of elements                        : 2074
  221. Stream size                              : 14.4 MiB (0%)
  222. Title                                    : Swedish-PGS
  223. Language                                 : Swedish
  224. Default                                  : No
  225. Forced                                   : No
  226. Text #11
  227. ID                                       : 15
  228. Format                                   : PGS
  229. Muxing mode                              : zlib
  230. Codec ID                                 : S_HDMV/PGS
  231. Codec ID/Info                            : Picture based subtitle format used on BDs/HD-DVDs
  232. Duration                                 : 1 h 58 min
  233. Bit rate                                 : 18.6 kb/s
  234. Count of elements                        : 2082
  235. Stream size                              : 15.8 MiB (0%)
  236. Title                                    : Norwegian-PGS
  237. Language                                 : Norwegian
  238. Default                                  : No
  239. Forced                                   : No
  240. Text #12
  241. ID                                       : 16
  242. Format                                   : PGS
  243. Muxing mode                              : zlib
  244. Codec ID                                 : S_HDMV/PGS
  245. Codec ID/Info                            : Picture based subtitle format used on BDs/HD-DVDs
  246. Duration                                 : 1 h 58 min
  247. Bit rate                                 : 17.2 kb/s
  248. Count of elements                        : 2080
  249. Stream size                              : 14.6 MiB (0%)
  250. Title                                    : Danish-PGS
  251. Language                                 : Danish
  252. Default                                  : No
  253. Forced                                   : No
  254. Text #13
  255. ID                                       : 17
  256. Format                                   : PGS
  257. Muxing mode                              : zlib
  258. Codec ID                                 : S_HDMV/PGS
  259. Codec ID/Info                            : Picture based subtitle format used on BDs/HD-DVDs
  260. Duration                                 : 1 h 58 min
  261. Bit rate                                 : 18.2 kb/s
  262. Count of elements                        : 2084
  263. Stream size                              : 15.5 MiB (0%)
  264. Title                                    : Finnish-PGS
  265. Language                                 : Finnish
  266. Default                                  : No
  267. Forced                                   : No
  268. Text #14
  269. ID                                       : 18
  270. Format                                   : PGS
  271. Muxing mode                              : zlib
  272. Codec ID                                 : S_HDMV/PGS
  273. Codec ID/Info                            : Picture based subtitle format used on BDs/HD-DVDs
  274. Duration                                 : 1 h 59 min
  275. Bit rate                                 : 17.7 kb/s
  276. Count of elements                        : 2014
  277. Stream size                              : 15.1 MiB (0%)
  278. Title                                    : Russian-PGS
  279. Language                                 : Russian
  280. Default                                  : No
  281. Forced                                   : No
  282. Text #15
  283. ID                                       : 19
  284. Format                                   : PGS
  285. Muxing mode                              : zlib
  286. Codec ID                                 : S_HDMV/PGS
  287. Codec ID/Info                            : Picture based subtitle format used on BDs/HD-DVDs
  288. Duration                                 : 1 h 59 min
  289. Bit rate                                 : 17.3 kb/s
  290. Count of elements                        : 2086
  291. Stream size                              : 14.7 MiB (0%)
  292. Title                                    : Czech-PGS
  293. Language                                 : Czech
  294. Default                                  : No
  295. Forced                                   : No
  296. Text #16
  297. ID                                       : 20
  298. Format                                   : PGS
  299. Muxing mode                              : zlib
  300. Codec ID                                 : S_HDMV/PGS
  301. Codec ID/Info                            : Picture based subtitle format used on BDs/HD-DVDs
  302. Duration                                 : 1 h 59 min
  303. Bit rate                                 : 19.4 kb/s
  304. Count of elements                        : 1972
  305. Stream size                              : 16.5 MiB (0%)
  306. Title                                    : Polish-PGS
  307. Language                                 : Polish
  308. Default                                  : No
  309. Forced                                   : No
  310. Text #17
  311. ID                                       : 21
  312. Format                                   : PGS
  313. Muxing mode                              : zlib
  314. Codec ID                                 : S_HDMV/PGS
  315. Codec ID/Info                            : Picture based subtitle format used on BDs/HD-DVDs
  316. Duration                                 : 1 h 59 min
  317. Bit rate                                 : 20.6 kb/s
  318. Count of elements                        : 2084
  319. Stream size                              : 17.6 MiB (0%)
  320. Title                                    : Hungarian-PGS
  321. Language                                 : Hungarian
  322. Default                                  : No
  323. Forced                                   : No
  324. Text #18
  325. ID                                       : 22
  326. Format                                   : PGS
  327. Muxing mode                              : zlib
  328. Codec ID                                 : S_HDMV/PGS
  329. Codec ID/Info                            : Picture based subtitle format used on BDs/HD-DVDs
  330. Duration                                 : 2 h 1 min
  331. Bit rate                                 : 11.5 kb/s
  332. Count of elements                        : 2096
  333. Stream size                              : 9.99 MiB (0%)
  334. Title                                    : Arabic-PGS
  335. Language                                 : Arabic
  336. Default                                  : No
  337. Forced                                   : No
  338. Text #19
  339. ID                                       : 23
  340. Format                                   : PGS
  341. Muxing mode                              : zlib
  342. Codec ID                                 : S_HDMV/PGS
  343. Codec ID/Info                            : Picture based subtitle format used on BDs/HD-DVDs
  344. Duration                                 : 2 h 0 min
  345. Bit rate                                 : 14.3 kb/s
  346. Count of elements                        : 1928
  347. Stream size                              : 12.4 MiB (0%)
  348. Title                                    : Japanese-PGS
  349. Language                                 : Japanese
  350. Default                                  : No
  351. Forced                                   : No
  352. Text #20
  353. ID                                       : 24
  354. Format                                   : PGS
  355. Muxing mode                              : zlib
  356. Codec ID                                 : S_HDMV/PGS
  357. Codec ID/Info                            : Picture based subtitle format used on BDs/HD-DVDs
  358. Duration                                 : 2 h 3 min
  359. Bit rate                                 : 32.9 kb/s
  360. Count of elements                        : 2780
  361. Stream size                              : 29.0 MiB (0%)
  362. Title                                    : Japanese-PGS
  363. Language                                 : Japanese
  364. Default                                  : No
  365. Forced                                   : No
  366. Text #21
  367. ID                                       : 25
  368. Format                                   : PGS
  369. Muxing mode                              : zlib
  370. Codec ID                                 : S_HDMV/PGS
  371. Codec ID/Info                            : Picture based subtitle format used on BDs/HD-DVDs
  372. Duration                                 : 2 h 1 min
  373. Bit rate                                 : 15.9 kb/s
  374. Count of elements                        : 2116
  375. Stream size                              : 13.8 MiB (0%)
  376. Title                                    : Chinese-PGS
  377. Language                                 : Chinese
  378. Default                                  : No
  379. Forced                                   : No
  380. Text #22
  381. ID                                       : 26
  382. Format                                   : PGS
  383. Muxing mode                              : zlib
  384. Codec ID                                 : S_HDMV/PGS
  385. Codec ID/Info                            : Picture based subtitle format used on BDs/HD-DVDs
  386. Duration                                 : 1 h 58 min
  387. Bit rate                                 : 17.5 kb/s
  388. Count of elements                        : 1928
  389. Stream size                              : 14.9 MiB (0%)
  390. Title                                    : Chinese-PGS
  391. Language                                 : Chinese
  392. Default                                  : No
  393. Forced                                   : No
  394. Text #23
  395. ID                                       : 27
  396. Format                                   : PGS
  397. Muxing mode                              : zlib
  398. Codec ID                                 : S_HDMV/PGS
  399. Codec ID/Info                            : Picture based subtitle format used on BDs/HD-DVDs
  400. Duration                                 : 1 h 58 min
  401. Bit rate                                 : 17.2 kb/s
  402. Count of elements                        : 1928
  403. Stream size                              : 14.6 MiB (0%)
  404. Title                                    : Chinese-PGS
  405. Language                                 : Chinese
  406. Default                                  : No
  407. Forced                                   : No
  408. Text #24
  409. ID                                       : 28
  410. Format                                   : PGS
  411. Muxing mode                              : zlib
  412. Codec ID                                 : S_HDMV/PGS
  413. Codec ID/Info                            : Picture based subtitle format used on BDs/HD-DVDs
  414. Duration                                 : 2 h 1 min
  415. Bit rate                                 : 14.2 kb/s
  416. Count of elements                        : 2084
  417. Stream size                              : 12.3 MiB (0%)
  418. Title                                    : Korean-PGS
  419. Language                                 : Korean
  420. Default                                  : No
  421. Forced                                   : No
  422. Text #25
  423. ID                                       : 29
  424. Format                                   : PGS
  425. Muxing mode                              : zlib
  426. Codec ID                                 : S_HDMV/PGS
  427. Codec ID/Info                            : Picture based subtitle format used on BDs/HD-DVDs
  428. Duration                                 : 2 h 1 min
  429. Bit rate                                 : 19.6 kb/s
  430. Count of elements                        : 2148
  431. Stream size                              : 17.0 MiB (0%)
  432. Title                                    : Thai-PGS
  433. Language                                 : Thai
  434. Default                                  : No
  435. Forced                                   : No
  436. Menu
  437. 00:00:00.000                             : en:Chapter 01
  438. 00:02:33.153                             : en:Chapter 02
  439. 00:07:03.590                             : en:Chapter 03
  440. 00:09:26.566                             : en:Chapter 04
  441. 00:12:21.991                             : en:Chapter 05
  442. 00:14:41.839                             : en:Chapter 06
  443. 00:17:03.564                             : en:Chapter 07
  444. 00:20:05.287                             : en:Chapter 08
  445. 00:23:57.811                             : en:Chapter 09
  446. 00:27:05.749                             : en:Chapter 10
  447. 00:30:25.365                             : en:Chapter 11
  448. 00:34:12.259                             : en:Chapter 12
  449. 00:36:13.546                             : en:Chapter 13
  450. 00:38:24.302                             : en:Chapter 14
  451. 00:41:06.047                             : en:Chapter 15
  452. 00:45:06.495                             : en:Chapter 16
  453. 00:48:06.801                             : en:Chapter 17
  454. 00:50:51.465                             : en:Chapter 18
  455. 00:54:18.881                             : en:Chapter 19
  456. 00:57:54.096                             : en:Chapter 20
  457. 00:59:34.070                             : en:Chapter 21
  458. 01:06:37.785                             : en:Chapter 22
  459. 01:12:23.923                             : en:Chapter 23
  460. 01:16:28.959                             : en:Chapter 24
  461. 01:18:18.861                             : en:Chapter 25
  462. 01:21:10.449                             : en:Chapter 26
  463. 01:25:29.833                             : en:Chapter 27
  464. 01:27:24.739                             : en:Chapter 28
  465. 01:29:32.701                             : en:Chapter 29
  466. 01:33:57.799                             : en:Chapter 30
  467. 01:35:50.119                             : en:Chapter 31
  468. 01:38:15.556                             : en:Chapter 32
  469. 01:42:43.616                             : en:Chapter 33
  470. 01:46:34.013                             : en:Chapter 34
  471. 01:50:10.729                             : en:Chapter 35
  472. 01:53:19.960                             : en:Chapter 36
  473. 01:59:42.967                             : en:Chapter 37
  474. 02:02:30.134                             : en:Chapter 38
复制代码









                                       
                                       

                                       
                                       
                                       




回复

使用道具 举报

懒得打字嘛,点击右侧快捷回复 【右侧内容,后台自定义】
您需要登录后才可以回帖 登录 | 立即加入

本版积分规则

Archiver|小黑屋| 蓝光电影网 |网站地图

Copyright © 2021 Comsenz Inc. Powered by 蓝光电影网

蓝光电影网

本站内容由用户自主分享和转载自互联网,转载目的在于传递更多信息,并不代表本网赞同其观点和对其真实性负责。

如有侵权、违反国家法律政策行为,请联系我们,我们会第一时间及时清除和处理!

举报反馈邮箱:[email protected]

快速回复 返回顶部 返回列表