找回密码

蓝光电影网

查看: 21|回复: 0

[剧情] 哺乳动物/少年禁恋 Mammal.2016.1080p.NF.WEBRip.DD5.1.x264-NTG 3.82GB

[复制链接]
蓝光币
426
发表于 2021-8-20 00:54:56 | 显示全部楼层 |阅读模式


◎译  名 哺乳动物/少年禁恋(台)
◎片  名 Mammal
◎年  代 2016
◎产  地 爱尔兰
◎类  别 剧情
◎语  言 英语
◎上映日期 2016-01-24(爱尔兰)
◎IMDb评分  6.3/10 from 460 users
◎IMDb链接  https://www.imdb.com/title/tt3777860/
◎豆瓣评分 6.6/10 from 281 users
◎豆瓣链接 https://movie.douban.com/subject/26286214/
◎片  长 99分钟
◎导  演 丽贝卡·达利 Rebecca Daly
◎编  剧 丽贝卡·达利 Rebecca Daly / Glenn Montgomery
◎主  演 瑞切尔·格里菲斯 Rachel Griffiths
       迈克尔·麦克埃尔哈顿 Michael McElhatton
       菲尔·基欧汉 Phil Keoghan
       巴里·基奥恩 Barry Keoghan
◎标  签 爱尔兰 | 剧情 | 2016 | 女性 | 爱尔兰电影 | 家庭 | 人性 | 恋爱
◎简  介


  瑪格麗特(瑞秋格瑞菲斯飾演)喪子又離婚,在年輕遊民喬(貝瑞科漢)的身上获得親情般的安慰,兩人的關係逐漸發展成曖昧情愫,但瑪格麗特的前夫和喬的幫派朋友卻無法接管。
◎获奖情况
  第32届圣丹斯电影节 ?(2016)
  评审团大奖天下电影单元剧情片(提名)
  1. Video
  2. ID                                       : 1
  3. Format                                   : AVC
  4. Format/Info                              : Advanced Video Codec
  5. Format profile                           : [email protected]
  6. Format settings                          : CABAC / 3 Ref Frames
  7. Format settings, CABAC                   : Yes
  8. Format settings, Reference frames        : 3 frames
  9. Codec ID                                 : V_MPEG4/ISO/AVC
  10. Duration                                 : 1 h 39 min
  11. Bit rate mode                            : Variable
  12. Bit rate                                 : 5 110 kb/s
  13. Maximum bit rate                         : 7 665 kb/s
  14. Width                                    : 1 920 pixels
  15. Height                                   : 1 080 pixels
  16. Display aspect ratio                     : 16:9
  17. Frame rate mode                          : Constant
  18. Frame rate                               : 23.976 (24000/1001/189150) FPS
  19. Color space                              : YUV
  20. Chroma subsampling                       : 4:2:0
  21. Bit depth                                : 8 bits
  22. Scan type                                : Progressive
  23. Bits/(Pixel*Frame)                       : 0.103
  24. Stream size                              : 3.55 GiB (93%)
  25. Writing library                          : x264 core 118
  26. Encoding settings                        : cabac=1 / ref=3 / deblock=1:0:0 / analyse=0x1:0x111 / me=umh / subme=10 / psy=1 / psy_rd=1.00:0.00 / mixed_ref=1 / me_range=24 / chroma_me=1 / trellis=2 / 8x8dct=0 / cqm=0 / deadzone=21,11 / fast_pskip=1 / chroma_qp_offset=-2 / threads=8 / sliced_threads=0 / nr=0 / decimate=1 / interlaced=0 / bluray_compat=0 / constrained_intra=0 / bframes=2 / b_pyramid=0 / b_adapt=2 / b_bias=0 / direct=3 / weightb=1 / open_gop=0 / weightp=2 / keyint=48 / keyint_min=25 / scenecut=0 / intra_refresh=0 / rc_lookahead=0 / rc=2pass / mbtree=1 / bitrate=5110 / ratetol=1.0 / qcomp=0.50 / qpmin=6 / qpmax=51 / qpstep=4 / cplxblur=20.0 / qblur=0.5 / vbv_maxrate=7665 / vbv_bufsize=10220 / nal_hrd=vbr / ip_ratio=1.40 / aq=1:1.00
  27. Default                                  : Yes
  28. Forced                                   : No
  29. Audio
  30. ID                                       : 2
  31. Format                                   : AC-3
  32. Format/Info                              : Audio Coding 3
  33. Commercial name                          : Dolby Digital
  34. Codec ID                                 : A_AC3
  35. Duration                                 : 1 h 39 min
  36. Bit rate mode                            : Constant
  37. Bit rate                                 : 384 kb/s
  38. Channel(s)                               : 6 channels
  39. Channel layout                           : L R C LFE Ls Rs
  40. Sampling rate                            : 48.0 kHz
  41. Frame rate                               : 31.250 FPS (1536 SPF)
  42. Compression mode                         : Lossy
  43. Stream size                              : 274 MiB (7%)
  44. Language                                 : English
  45. Service kind                             : Complete Main
  46. Default                                  : Yes
  47. Forced                                   : No
  48. Encoded date                             : UTC 2017-05-26 07:56:18
  49. Text #1
  50. ID                                       : 3
  51. Format                                   : UTF-8
  52. Codec ID                                 : S_TEXT/UTF8
  53. Codec ID/Info                            : UTF-8 Plain Text
  54. Duration                                 : 1 h 33 min
  55. Bit rate                                 : 18 b/s
  56. Count of elements                        : 528
  57. Stream size                              : 12.6 KiB (0%)
  58. Language                                 : English
  59. Default                                  : No
  60. Forced                                   : No
  61. Text #2
  62. ID                                       : 4
  63. Format                                   : UTF-8
  64. Codec ID                                 : S_TEXT/UTF8
  65. Codec ID/Info                            : UTF-8 Plain Text
  66. Duration                                 : 1 h 34 min
  67. Bit rate                                 : 23 b/s
  68. Count of elements                        : 720
  69. Stream size                              : 16.4 KiB (0%)
  70. Title                                    : SDH
  71. Language                                 : English
  72. Default                                  : No
  73. Forced                                   : No
复制代码






                                       
                                       

                                       
                                       
                                       




回复

使用道具 举报

懒得打字嘛,点击右侧快捷回复 【右侧内容,后台自定义】
您需要登录后才可以回帖 登录 | 立即加入

本版积分规则

Archiver|小黑屋| 蓝光电影网 |网站地图

Copyright © 2021 Comsenz Inc. Powered by 蓝光电影网

蓝光电影网

本站内容由用户自主分享和转载自互联网,转载目的在于传递更多信息,并不代表本网赞同其观点和对其真实性负责。

如有侵权、违反国家法律政策行为,请联系我们,我们会第一时间及时清除和处理!

举报反馈邮箱:[email protected]

快速回复 返回顶部 返回列表