找回密码

蓝光电影网

查看: 5|回复: 0

[2160p] 月球/2009月球漫游 Moon.2009.2160p.BluRay.x264.8bit.SDR.DTS-HD.MA.TrueHD.7.1.Atmos-SWTYBLZ 37.36GB

[复制链接]
蓝光币
382
发表于 2019-7-21 00:05:24 | 显示全部楼层 |阅读模式


◎译  名 月球 / 2009月球周游 / 孤单月影 / 月劫余生(港)
◎片  名 Moon
◎年  代 2009
◎产  地 英国
◎类  别 剧情 / 科幻 / 悬疑
◎语  言 英语 / 西班牙语
◎上映日期 2009-07-17
◎IMDb评分  7.9/10 from 313048 users
◎IMDb链接  http://www.imdb.com/title/tt1182345
◎豆瓣评分 8.5/10 from 180086 users
◎豆瓣链接 https://movie.douban.com/subject/3073124/
◎片  长 97 分钟
◎导  演 邓肯·琼斯 Duncan Jones
◎编  剧 邓肯·琼斯 Duncan Jones / 内森·帕克 Nathan Parker
◎主  演 山姆·洛克威尔 Sam Rockwell
      凯文·史派西 Kevin Spacey
      多米妮克·麦克艾丽戈特 Dominique McElligott
      卡雅·斯考达里奥 Kaya Scodelario
      本德里克特·王 Benedict Wong
      马特·贝里 Matt Berry
      马尔科姆·斯图尔特 Malcolm Stewart
      罗宾·查克 Robin Chalk

◎标  签 科幻 | 人性 | 英国 | 孤独 | 悬疑 | 2009 | 深思 | 人生
◎简  介  
  未来天下,随着科技的飞速进步,地球的净化也越来越严重。为了停止这类现状,一家名为月能产业有限公司的企业应运而生。该公司努力于月球能源的开辟,经过收集氦-3来满足地球对能源的需求。月能公司在月球设有基地,山姆·贝尔(山姆·洛克威尔 Sam Rockwell 饰)正是该基地 上唯一的工作职员。山姆是公司聘用的条约工,他已在月球孤零零地生活3年,陪伴他的只要智能机械人戈蒂(凯文·斯派西 Kevin Spacey 饰)。死板有趣的生活令山姆归心似箭,在还有两周就分开月球的时辰,山姆偶然遭受一路变乱。醒来后的他发现戈蒂似乎对其有所隐瞒,公司高层也拒绝他的回程请求。山姆借机逃出基地,却在变乱发生地址发现另一个自己……
本片荣获2009年爱丁堡国际电影节最好英国影片奖、2009年西雅图国际电影节最好男配角奖。
◎获奖情况  
  第22届芝加哥影评人协会奖(2009)
  最具潜力导演(提名) 邓肯·琼斯
  第9届凤凰城影评人协会奖(2009)
  年度被疏忽影片

  1. Video
  2. ID                                       : 1
  3. Format                                   : AVC
  4. Format/Info                              : Advanced Video Codec
  5. Format profile                           : [email protected]
  6. Format settings                          : CABAC / 5 Ref Frames
  7. Format settings, CABAC                   : Yes
  8. Format settings, Reference frames        : 5 frames
  9. Codec ID                                 : V_MPEG4/ISO/AVC
  10. Duration                                 : 1 h 37 min
  11. Bit rate                                 : 46.8 Mb/s
  12. Width                                    : 3 840 pixels
  13. Height                                   : 1 600 pixels
  14. Display aspect ratio                     : 2.40:1
  15. Frame rate mode                          : Constant
  16. Frame rate                               : 23.976 (24000/1001) FPS
  17. Color space                              : YUV
  18. Chroma subsampling                       : 4:2:0
  19. Bit depth                                : 8 bits
  20. Scan type                                : Progressive
  21. Bits/(Pixel*Frame)                       : 0.318
  22. Stream size                              : 31.8 GiB (85%)
  23. Title                                    : Moon.2009.2160p.BluRay.x264.8bit.SDR.DTS-HD.MA.TrueHD.7.1.Atmos-SWTYBLZ
  24. Writing library                          : x264 core 157 r2935 545de2f
  25. Encoding settings                        : cabac=1 / ref=5 / deblock=1:-1:-1 / analyse=0x3:0x113 / me=umh / subme=10 / psy=1 / psy_rd=1.00:0.15 / mixed_ref=1 / me_range=48 / chroma_me=1 / trellis=2 / 8x8dct=1 / cqm=0 / deadzone=21,11 / fast_pskip=1 / chroma_qp_offset=-3 / threads=48 / lookahead_threads=4 / sliced_threads=0 / nr=0 / decimate=0 / interlaced=0 / bluray_compat=0 / constrained_intra=0 / bframes=3 / b_pyramid=2 / b_adapt=2 / b_bias=0 / direct=3 / weightb=1 / open_gop=0 / weightp=2 / keyint=250 / keyint_min=23 / scenecut=40 / intra_refresh=0 / rc_lookahead=50 / rc=crf / mbtree=1 / crf=18.0 / qcomp=0.60 / qpmin=0 / qpmax=69 / qpstep=4 / ip_ratio=1.40 / aq=1:1.00
  26. Default                                  : Yes
  27. Forced                                   : No
  28. Audio #1
  29. ID                                       : 2
  30. Format                                   : MLP FBA 16-ch
  31. Format/Info                              : Meridian Lossless Packing FBA with 16-channel presentation
  32. Commercial name                          : Dolby TrueHD with Dolby Atmos
  33. Codec ID                                 : A_TRUEHD
  34. Duration                                 : 1 h 37 min
  35. Bit rate mode                            : Variable
  36. Bit rate                                 : 3 081 kb/s
  37. Maximum bit rate                         : 5 742 kb/s
  38. Channel(s)                               : 8 channels
  39. Channel layout                           : L R C LFE Ls Rs Lb Rb
  40. Sampling rate                            : 48.0 kHz
  41. Frame rate                               : 1 200.000 FPS (40 SPF)
  42. Compression mode                         : Lossless
  43. Stream size                              : 2.09 GiB (6%)
  44. Title                                    : Moon.2009.2160p.BluRay.x264.8bit.SDR.DTS-HD.MA.TrueHD.7.1.Atmos-SWTYBLZ
  45. Language                                 : English
  46. Default                                  : Yes
  47. Forced                                   : No
  48. Number of dynamic objects                : 11
  49. Bed channel count                        : 1 channel
  50. Bed channel configuration                : LFE
  51. Audio #2
  52. ID                                       : 3
  53. Format                                   : DTS XLL
  54. Format/Info                              : Digital Theater Systems
  55. Commercial name                          : DTS-HD Master Audio
  56. Codec ID                                 : A_DTS
  57. Duration                                 : 1 h 37 min
  58. Bit rate mode                            : Variable
  59. Bit rate                                 : 4 142 kb/s
  60. Channel(s)                               : 8 channels
  61. Channel layout                           : C L R LFE Lb Rb Lss Rss
  62. Sampling rate                            : 48.0 kHz
  63. Frame rate                               : 93.750 FPS (512 SPF)
  64. Bit depth                                : 24 bits
  65. Compression mode                         : Lossless
  66. Stream size                              : 2.81 GiB (8%)
  67. Title                                    : Moon.2009.2160p.BluRay.x264.8bit.SDR.DTS-HD.MA.TrueHD.7.1.Atmos-SWTYBLZ
  68. Language                                 : English
  69. Default                                  : No
  70. Forced                                   : No
  71. Audio #3
  72. ID                                       : 4
  73. Format                                   : AC-3
  74. Format/Info                              : Audio Coding 3
  75. Commercial name                          : Dolby Digital
  76. Codec ID                                 : A_AC3
  77. Duration                                 : 1 h 37 min
  78. Bit rate mode                            : Constant
  79. Bit rate                                 : 640 kb/s
  80. Channel(s)                               : 6 channels
  81. Channel layout                           : L R C LFE Ls Rs
  82. Sampling rate                            : 48.0 kHz
  83. Frame rate                               : 31.250 FPS (1536 SPF)
  84. Bit depth                                : 16 bits
  85. Compression mode                         : Lossy
  86. Stream size                              : 444 MiB (1%)
  87. Title                                    : Moon.2009.2160p.BluRay.x264.8bit.SDR.DTS-HD.MA.TrueHD.7.1.Atmos-SWTYBLZ
  88. Language                                 : English
  89. Service kind                             : Complete Main
  90. Default                                  : No
  91. Forced                                   : No
  92. Text #1
  93. ID                                       : 5
  94. Format                                   : UTF-8
  95. Codec ID                                 : S_TEXT/UTF8
  96. Codec ID/Info                            : UTF-8 Plain Text
  97. Duration                                 : 1 h 32 min
  98. Bit rate                                 : 45 b/s
  99. Count of elements                        : 919
  100. Stream size                              : 30.6 KiB (0%)
  101. Title                                    : English-SRT
  102. Language                                 : English
  103. Default                                  : Yes
  104. Forced                                   : No
  105. Text #2
  106. ID                                       : 6
  107. Format                                   : PGS
  108. Muxing mode                              : zlib
  109. Codec ID                                 : S_HDMV/PGS
  110. Codec ID/Info                            : Picture based subtitle format used on BDs/HD-DVDs
  111. Duration                                 : 1 h 32 min
  112. Bit rate                                 : 34.3 kb/s
  113. Count of elements                        : 2192
  114. Stream size                              : 22.7 MiB (0%)
  115. Title                                    : English-SDH-PGS
  116. Language                                 : English
  117. Default                                  : No
  118. Forced                                   : No
  119. Text #3
  120. ID                                       : 7
  121. Format                                   : PGS
  122. Muxing mode                              : zlib
  123. Codec ID                                 : S_HDMV/PGS
  124. Codec ID/Info                            : Picture based subtitle format used on BDs/HD-DVDs
  125. Duration                                 : 1 h 32 min
  126. Bit rate                                 : 28.1 kb/s
  127. Count of elements                        : 1798
  128. Stream size                              : 18.6 MiB (0%)
  129. Title                                    : English-PGS
  130. Language                                 : English
  131. Default                                  : No
  132. Forced                                   : No
  133. Text #4
  134. ID                                       : 8
  135. Format                                   : PGS
  136. Muxing mode                              : zlib
  137. Codec ID                                 : S_HDMV/PGS
  138. Codec ID/Info                            : Picture based subtitle format used on BDs/HD-DVDs
  139. Duration                                 : 1 h 32 min
  140. Bit rate                                 : 34.3 kb/s
  141. Count of elements                        : 2192
  142. Stream size                              : 22.7 MiB (0%)
  143. Title                                    : English-SDH-PGS
  144. Language                                 : English
  145. Default                                  : No
  146. Forced                                   : No
  147. Text #5
  148. ID                                       : 9
  149. Format                                   : PGS
  150. Muxing mode                              : zlib
  151. Codec ID                                 : S_HDMV/PGS
  152. Codec ID/Info                            : Picture based subtitle format used on BDs/HD-DVDs
  153. Duration                                 : 1 h 32 min
  154. Bit rate                                 : 28.1 kb/s
  155. Count of elements                        : 1798
  156. Stream size                              : 18.6 MiB (0%)
  157. Title                                    : English-PGS
  158. Language                                 : English
  159. Default                                  : No
  160. Forced                                   : No
  161. Text #6
  162. ID                                       : 10
  163. Format                                   : PGS
  164. Muxing mode                              : zlib
  165. Codec ID                                 : S_HDMV/PGS
  166. Codec ID/Info                            : Picture based subtitle format used on BDs/HD-DVDs
  167. Duration                                 : 1 h 32 min
  168. Bit rate                                 : 21.8 kb/s
  169. Count of elements                        : 1828
  170. Stream size                              : 14.4 MiB (0%)
  171. Title                                    : Chinese-PGS
  172. Language                                 : Chinese
  173. Default                                  : No
  174. Forced                                   : No
  175. Text #7
  176. ID                                       : 11
  177. Format                                   : PGS
  178. Muxing mode                              : zlib
  179. Codec ID                                 : S_HDMV/PGS
  180. Codec ID/Info                            : Picture based subtitle format used on BDs/HD-DVDs
  181. Duration                                 : 1 h 32 min
  182. Bit rate                                 : 20.0 kb/s
  183. Count of elements                        : 1782
  184. Stream size                              : 13.3 MiB (0%)
  185. Title                                    : Chinese-PGS
  186. Language                                 : Chinese
  187. Default                                  : No
  188. Forced                                   : No
  189. Text #8
  190. ID                                       : 12
  191. Format                                   : PGS
  192. Muxing mode                              : zlib
  193. Codec ID                                 : S_HDMV/PGS
  194. Codec ID/Info                            : Picture based subtitle format used on BDs/HD-DVDs
  195. Duration                                 : 1 h 36 min
  196. Bit rate                                 : 19.7 kb/s
  197. Count of elements                        : 1826
  198. Stream size                              : 13.6 MiB (0%)
  199. Title                                    : French-PGS
  200. Language                                 : French
  201. Default                                  : No
  202. Forced                                   : No
  203. Text #9
  204. ID                                       : 13
  205. Format                                   : PGS
  206. Muxing mode                              : zlib
  207. Codec ID                                 : S_HDMV/PGS
  208. Codec ID/Info                            : Picture based subtitle format used on BDs/HD-DVDs
  209. Duration                                 : 1 h 32 min
  210. Bit rate                                 : 22.0 kb/s
  211. Count of elements                        : 1828
  212. Stream size                              : 14.6 MiB (0%)
  213. Title                                    : Hindi-PGS
  214. Language                                 : Hindi
  215. Default                                  : No
  216. Forced                                   : No
  217. Text #10
  218. ID                                       : 14
  219. Format                                   : PGS
  220. Muxing mode                              : zlib
  221. Codec ID                                 : S_HDMV/PGS
  222. Codec ID/Info                            : Picture based subtitle format used on BDs/HD-DVDs
  223. Duration                                 : 1 h 32 min
  224. Bit rate                                 : 28.6 kb/s
  225. Count of elements                        : 1824
  226. Stream size                              : 18.9 MiB (0%)
  227. Title                                    : Indonesian-PGS
  228. Language                                 : Indonesian
  229. Default                                  : No
  230. Forced                                   : No
  231. Text #11
  232. ID                                       : 15
  233. Format                                   : PGS
  234. Muxing mode                              : zlib
  235. Codec ID                                 : S_HDMV/PGS
  236. Codec ID/Info                            : Picture based subtitle format used on BDs/HD-DVDs
  237. Duration                                 : 1 h 32 min
  238. Bit rate                                 : 26.6 kb/s
  239. Count of elements                        : 1826
  240. Stream size                              : 17.6 MiB (0%)
  241. Title                                    : Italian-PGS
  242. Language                                 : Italian
  243. Default                                  : No
  244. Forced                                   : No
  245. Text #12
  246. ID                                       : 16
  247. Format                                   : PGS
  248. Muxing mode                              : zlib
  249. Codec ID                                 : S_HDMV/PGS
  250. Codec ID/Info                            : Picture based subtitle format used on BDs/HD-DVDs
  251. Duration                                 : 1 h 32 min
  252. Bit rate                                 : 17.5 kb/s
  253. Count of elements                        : 1554
  254. Stream size                              : 11.6 MiB (0%)
  255. Title                                    : Japanese-PGS
  256. Language                                 : Japanese
  257. Default                                  : No
  258. Forced                                   : No
  259. Text #13
  260. ID                                       : 17
  261. Format                                   : PGS
  262. Muxing mode                              : zlib
  263. Codec ID                                 : S_HDMV/PGS
  264. Codec ID/Info                            : Picture based subtitle format used on BDs/HD-DVDs
  265. Duration                                 : 1 h 32 min
  266. Bit rate                                 : 27.1 kb/s
  267. Count of elements                        : 1830
  268. Stream size                              : 17.9 MiB (0%)
  269. Title                                    : Portuguese-PGS
  270. Language                                 : Portuguese
  271. Default                                  : No
  272. Forced                                   : No
  273. Text #14
  274. ID                                       : 18
  275. Format                                   : PGS
  276. Muxing mode                              : zlib
  277. Codec ID                                 : S_HDMV/PGS
  278. Codec ID/Info                            : Picture based subtitle format used on BDs/HD-DVDs
  279. Duration                                 : 1 h 36 min
  280. Bit rate                                 : 23.1 kb/s
  281. Count of elements                        : 1596
  282. Stream size                              : 16.0 MiB (0%)
  283. Title                                    : Spanish-PGS
  284. Language                                 : Spanish
  285. Default                                  : No
  286. Forced                                   : No
  287. Text #15
  288. ID                                       : 19
  289. Format                                   : PGS
  290. Muxing mode                              : zlib
  291. Codec ID                                 : S_HDMV/PGS
  292. Codec ID/Info                            : Picture based subtitle format used on BDs/HD-DVDs
  293. Duration                                 : 1 h 32 min
  294. Bit rate                                 : 28.4 kb/s
  295. Count of elements                        : 1830
  296. Stream size                              : 18.8 MiB (0%)
  297. Title                                    : Spanish-PGS
  298. Language                                 : Spanish
  299. Default                                  : No
  300. Forced                                   : No
  301. Text #16
  302. ID                                       : 20
  303. Format                                   : PGS
  304. Muxing mode                              : zlib
  305. Codec ID                                 : S_HDMV/PGS
  306. Codec ID/Info                            : Picture based subtitle format used on BDs/HD-DVDs
  307. Duration                                 : 1 h 32 min
  308. Bit rate                                 : 22.1 kb/s
  309. Count of elements                        : 1828
  310. Stream size                              : 14.6 MiB (0%)
  311. Title                                    : Thai-PGS
  312. Language                                 : Thai
  313. Default                                  : No
  314. Forced                                   : No
  315. Menu
  316. 00:00:00.000                             : en:Chapter 01
  317. 00:05:46.888                             : en:Chapter 02
  318. 00:11:10.169                             : en:Chapter 03
  319. 00:18:05.959                             : en:Chapter 04
  320. 00:23:03.840                             : en:Chapter 05
  321. 00:28:52.981                             : en:Chapter 06
  322. 00:34:41.120                             : en:Chapter 07
  323. 00:42:57.992                             : en:Chapter 08
  324. 00:47:33.016                             : en:Chapter 09
  325. 00:54:40.944                             : en:Chapter 10
  326. 01:02:00.007                             : en:Chapter 11
  327. 01:07:43.225                             : en:Chapter 12
  328. 01:13:20.187                             : en:Chapter 13
  329. 01:16:54.943                             : en:Chapter 14
  330. 01:22:37.661                             : en:Chapter 15
  331. 01:30:45.106                             : en:Chapter 16
复制代码









                                       
                                       

                                       
                                       
                                       




回复

使用道具 举报

懒得打字嘛,点击右侧快捷回复 【右侧内容,后台自定义】
您需要登录后才可以回帖 登录 | 立即加入

本版积分规则

Archiver|小黑屋| 蓝光电影网 |网站地图

Copyright © 2021 Comsenz Inc. Powered by 蓝光电影网

蓝光电影网

本站内容由用户自主分享和转载自互联网,转载目的在于传递更多信息,并不代表本网赞同其观点和对其真实性负责。

如有侵权、违反国家法律政策行为,请联系我们,我们会第一时间及时清除和处理!

举报反馈邮箱:[email protected]

快速回复 返回顶部 返回列表