找回密码

蓝光电影网

查看: 3|回复: 0

[2160p] 雷霆沙赞! Shazam.2019.INTERNAL.HDR.2160p.WEB.H265-DEFLATE 23.38GB

[复制链接]
蓝光币
382
发表于 2019-7-8 14:10:03 | 显示全部楼层 |阅读模式


◎译  名 雷霆沙赞! / Billy Batson and the Legend of Shazam! / Franklin / 奇迹队长 / 沙赞 / 沙赞!(台) / 沙赞!神力集结(港) / 奇异上尉 / 雷霆沙赞
◎片  名 Shazam!
◎年  代 2019
◎产  地 美国
◎类  别 行动 / 奇异 / 冒险
◎语  言 英语
◎上映日期 2019-04-05(美国/中国大陆)
◎IMDb评分  7.5/10 from 100273 users
◎IMDb链接  http://www.imdb.com/title/tt0448115
◎豆瓣评分 6.6/10 from 110901 users
◎豆瓣链接 https://movie.douban.com/subject/2244426/
◎片  长 132分钟
◎导  演 大卫·F·桑德伯格 David F. Sandberg
◎编  剧 亨利·盖登 Henry Gayden / 达伦·莱姆克 Darren Lemke / 比尔·帕克 Bill Parker / C·C·贝克 C.C. Beck
◎主  演 扎克瑞·莱维 Zachary Levi
      马克·斯特朗 Mark Strong
      亚瑟·安其 Asher Angel
      杰克·迪伦·格雷泽 Jack Dylan Grazer
      杰曼·翰苏 Djimon Hounsou
      费滋·赫尔曼 Faithe Herman
      约文·阿曼德 Jovan Armand
      陈琦烨 Ian Chen
      格蕾丝·富尔顿 Grace Fulton
      亚当·布罗迪 Adam Brody
      梅根·古德 Meagan Good
      米歇尔·博斯 Michelle Borth
      罗斯·巴特勒 Ross Butler
      马尔塔·米兰斯 Marta Milans
      库珀·安德鲁斯 Cooper Andrews
      罗维娜·亚瓦里 Lovina Yavari
      埃文·马什 Evan Marsh
      娜塔莉亚姗福瑞 Natalia Safran
      D·J·科特罗纳 D.J. Cotrona
      艾娃·普雷斯顿 Ava Preston
      安迪·奥修 Andi Osho
      卡尔森·迈克马克 Carson MacCormac
      莎伊娜·瑞恩 Shayna Ryan
      莎拉·贝纳尼 Sarah Bennani
      安吉莉卡·利斯克 Angelica Lisk
      辛迪·戴 Cyndy Day
      洛塔·洛森 Lotta Losten
      西蒙·诺斯伍德 Simon Northwood
      戴维·科赫史姑娘 David Kohlsmith
      卢·卢·萨夫兰 Lou Lou Safran
      Adam Rodness
      杰夫·桑卡 Jeff Sanca
      阿里·巴德沙阿 Ali Badshah
      大卫·J·麦克尼尔 David J. MacNeil
      达娜·雷兹尼克 Dana Reznik
      迪索·拉莫斯 Diezel Ramos

◎标  签 DC | 超级豪杰 | 沙雕 | 美国 | 笑剧 | 漫画改编 | 2019 | 科幻
◎简  介  
  因儿时与母亲失散,少年比利(亚瑟·安其 Asher Angel 饰)辗转多个家庭,却固执地要回到妈妈身旁。当他再度居住一个由养子养女的大师庭时,却鬼使神差来到某个未知的范畴,而且成为陈腐巫师的继续人。当他喊出“沙赞”时,便会瞬间酿成具有强健成年人身材的超级豪杰雷霆沙赞(扎克瑞·莱维 Zachary Levi 饰)。比利兴奋不已,和新家的兄弟——得了腿部残疾的弗雷迪(杰克·迪伦·格雷泽 Jack Dylan Grazer 饰)配合分享这份欢畅,两人更将展现各类超才能的视频上传收集,流布四方。成果,包藏祸心的赛迪斯·希瓦纳博士(马克·斯特朗 Mark Strong 饰)找上门来。
希瓦纳童年时曾与沙赞身份失之交臂,一向不受父亲兄长待见的他将灵魂出售给七宗罪魔鬼,他更诡计摧毁阿谁让他求之不得又恨之入骨的雷霆沙赞……
  1. Video
  2. ID                                       : 1
  3. Format                                   : HEVC
  4. Format/Info                              : High Efficiency Video Coding
  5. Commercial name                          : HDR10
  6. Format profile                           : Main [email protected]@High
  7. Codec ID                                 : V_MPEGH/ISO/HEVC
  8. Duration                                 : 2 h 11 min
  9. Bit rate                                 : 24.3 Mb/s
  10. Width                                    : 3 840 pixels
  11. Height                                   : 1 608 pixels
  12. Original height                          : 2 160 pixels
  13. Display aspect ratio                     : 16:9
  14. Frame rate mode                          : Constant
  15. Frame rate                               : 23.976 (24000/1001) FPS
  16. Color space                              : YUV
  17. Chroma subsampling                       : 4:2:0 (Type 2)
  18. Bit depth                                : 10 bits
  19. Bits/(Pixel*Frame)                       : 0.164
  20. Stream size                              : 22.4 GiB (96%)
  21. Language                                 : English
  22. Default                                  : Yes
  23. Forced                                   : No
  24. Color range                              : Limited
  25. Color primaries                          : BT.2020
  26. Transfer characteristics                 : PQ
  27. Matrix coefficients                      : BT.2020 non-constant
  28. Mastering display color primaries        : Display P3
  29. Mastering display luminance              : min: 0.0050 cd/m2, max: 4000 cd/m2
  30. Maximum Content Light Level              : 1351 cd/m2
  31. Maximum Frame-Average Light Level        : 384 cd/m2
  32. Audio
  33. ID                                       : 2
  34. Format                                   : E-AC-3 JOC
  35. Format/Info                              : Enhanced AC-3 with Joint Object Coding
  36. Commercial name                          : Dolby Digital Plus with Dolby Atmos
  37. Codec ID                                 : A_EAC3
  38. Duration                                 : 2 h 11 min
  39. Bit rate mode                            : Constant
  40. Bit rate                                 : 576 kb/s
  41. Channel(s)                               : 6 channels
  42. Channel layout                           : L R C LFE Ls Rs
  43. Sampling rate                            : 48.0 kHz
  44. Frame rate                               : 31.250 FPS (1536 SPF)
  45. Compression mode                         : Lossy
  46. Stream size                              : 543 MiB (2%)
  47. Language                                 : English
  48. Service kind                             : Complete Main
  49. Default                                  : Yes
  50. Forced                                   : No
  51. Complexity index                         : 16
  52. Number of dynamic objects                : 15
  53. Bed channel count                        : 1 channel
  54. Bed channel configuration                : LFE
  55. Text #1
  56. ID                                       : 3
  57. Format                                   : UTF-8
  58. Codec ID                                 : S_TEXT/UTF8
  59. Codec ID/Info                            : UTF-8 Plain Text
  60. Title                                    : English
  61. Language                                 : English
  62. Default                                  : No
  63. Forced                                   : No
  64. Text #2
  65. ID                                       : 4
  66. Format                                   : UTF-8
  67. Codec ID                                 : S_TEXT/UTF8
  68. Codec ID/Info                            : UTF-8 Plain Text
  69. Title                                    : English (SDH)
  70. Language                                 : English
  71. Default                                  : No
  72. Forced                                   : No
  73. Text #3
  74. ID                                       : 5
  75. Format                                   : UTF-8
  76. Codec ID                                 : S_TEXT/UTF8
  77. Codec ID/Info                            : UTF-8 Plain Text
  78. Title                                    : Spanish
  79. Language                                 : Spanish
  80. Default                                  : No
  81. Forced                                   : No
  82. Menu
  83. 00:00:00.000                             : en:Chapter 1
  84. 00:08:18.000                             : en:Chapter 2
  85. 00:15:11.000                             : en:Chapter 3
  86. 00:25:22.000                             : en:Chapter 4
  87. 00:31:57.000                             : en:Chapter 5
  88. 00:39:00.000                             : en:Chapter 6
  89. 00:50:07.000                             : en:Chapter 7
  90. 01:01:28.000                             : en:Chapter 8
  91. 01:08:51.000                             : en:Chapter 9
  92. 01:16:39.000                             : en:Chapter 10
  93. 01:24:29.000                             : en:Chapter 11
  94. 01:34:00.000                             : en:Chapter 12
  95. 01:43:01.000                             : en:Chapter 13
  96. 01:52:53.000                             : en:Chapter 14
  97. 02:00:44.000                             : en:Chapter 15
复制代码






                                       
                                       

                                       
                                       
                                       




回复

使用道具 举报

懒得打字嘛,点击右侧快捷回复 【右侧内容,后台自定义】
您需要登录后才可以回帖 登录 | 立即加入

本版积分规则

Archiver|小黑屋| 蓝光电影网 |网站地图

Copyright © 2021 Comsenz Inc. Powered by 蓝光电影网

蓝光电影网

本站内容由用户自主分享和转载自互联网,转载目的在于传递更多信息,并不代表本网赞同其观点和对其真实性负责。

如有侵权、违反国家法律政策行为,请联系我们,我们会第一时间及时清除和处理!

举报反馈邮箱:[email protected]

快速回复 返回顶部 返回列表