找回密码

蓝光电影网

查看: 5|回复: 0

[2160p] 灰姑娘/仙履奇缘 Cinderella.2015.2160p.BluRay.x264.8bit.SDR.DTS-HD.MA.TrueHD.7.1.Atmos-SWTYBLZ 44.58GB

[复制链接]
蓝光币
382
发表于 2019-6-30 23:15:44 | 显示全部楼层 |阅读模式


◎译  名 灰姑娘 / 仙履奇缘(港 / 台)
◎片  名 Cinderella
◎年  代 2015
◎产  地 美国 / 英国
◎类  别 恋爱 / 奇异 / 冒险
◎语  言 英语
◎上映日期 2015-02-13(柏林电影节) / 2015-03-13(美国/中国大陆)
◎IMDb评分  6.9/10 from 143432 users
◎IMDb链接  http://www.imdb.com/title/tt1661199
◎豆瓣评分 6.8/10 from 152355 users
◎豆瓣链接 https://movie.douban.com/subject/6875263/
◎片  长 106分钟
◎导  演 肯尼思·布拉纳 Kenneth Branagh
◎编  剧 克里斯·韦兹 Chris Weitz
◎主  演 莉莉·詹姆斯 Lily James
      理查德·麦登 Richard Madden
      凯特·布兰切特 Cate Blanchett
      海莉·阿特维尔 Hayley Atwell
      海伦娜·伯翰·卡特 Helena Bonham Carter
      荷丽黛·格兰杰 Holliday Grainger
      索菲 麦希拉 Sophie Mcshera
      斯特兰·斯卡斯加德 Stellan Skarsg?rd
      侬索·阿诺斯 Nonso Anozie
      德里克·雅各比 Derek Jacobi
      本·卓别林 Ben Chaplin
      罗伯·布莱顿 Rob Brydon
      埃洛伊塞·韦伯 Eloise Webb
      劳里·卡尔弗特 Laurie Calvert
      亚历克斯·麦奎因 Alex Macqueen
      约书亚·麦圭尔 Joshua McGuire
      王丽雅 Leila Wong

◎标  签 童话 | 迪士尼 | 美国 | 恋爱 | 奇异 | 2015 | 浪漫 | 剧情
◎简  介  
  母亲归天后,瑞拉(莉莉·詹姆斯 Lily James 饰)的父亲迎娶了美丽的特曼妮夫人(凯特·布兰切特 Cate Blanchett 饰),特曼妮夫人还带来了她的两个女儿安乐西亚(荷丽黛·格兰杰 Holliday Grainger 饰)和崔西里亚(索菲·麦希拉 Sophie McShera 饰)。瑞拉本着善待他人的善良之心和继母与两个姐姐战争共处,但是,这一切却在父亲归天后发生了天翻地覆的变化。
落空了父亲的庇护,瑞拉完全沦为了特曼妮夫人的仆从和家中的女佣,可是,即使饱受亲人们的榨取与欺侮,瑞拉仍然决议留下来,保护这个家庭。一次偶然中,瑞拉相逢了名为基特(理查德·麦登 Richard Madden 饰)的男人,但是,她并不晓得眼前这个布满了魅力的年轻人贵为王子,还以为他只是区区随从。王子在王宫里举行了大型的宴会,约请全国高低的少女们前往加入,瑞拉也想去,但特曼妮夫人明显并不喜好她的这个主张。
◎获奖情况  
  第88届奥斯卡金像奖(2016)
  最好打扮设想(提名) 桑迪·鲍威尔
  第69届英国电影学院奖(2016)
  电影奖 最好打扮设想(提名) 桑迪·鲍威尔
  第18届美国打扮设想工会奖(2016)
  科幻/奇异题材电影最好打扮设想(提名)
  第21届美国批评家挑选电影奖(2016)
  最好打扮设想(提名)
  第19届好莱坞电影奖(2015)
  年度打扮设想 桑迪·鲍威尔
  第17届美国青少年挑选奖(2015)
  最好科幻/奇异电影(提名)
  最好科幻/奇异电影女演员(提名) 莉莉·詹姆斯
  第2届豆瓣电影年度榜单(2015)
  3月最受关注电影(提名)
  第6届豆瓣电影鑫像奖(2016)
  豆渣单元 最渣女演员(外语)(提名) 莉莉·詹姆斯

  1. Video
  2. ID                                       : 1
  3. Format                                   : AVC
  4. Format/Info                              : Advanced Video Codec
  5. Format profile                           : [email protected]
  6. Format settings                          : CABAC / 5 Ref Frames
  7. Format settings, CABAC                   : Yes
  8. Format settings, RefFrames               : 5 frames
  9. Codec ID                                 : V_MPEG4/ISO/AVC
  10. Duration                                 : 1 h 45 min
  11. Bit rate                                 : 50.9 Mb/s
  12. Width                                    : 3 840 pixels
  13. Height                                   : 1 608 pixels
  14. Display aspect ratio                     : 2.40:1
  15. Frame rate mode                          : Constant
  16. Frame rate                               : 23.976 (24000/1001) FPS
  17. Color space                              : YUV
  18. Chroma subsampling                       : 4:2:0
  19. Bit depth                                : 8 bits
  20. Scan type                                : Progressive
  21. Bits/(Pixel*Frame)                       : 0.344
  22. Stream size                              : 37.5 GiB (84%)
  23. Title                                    : Cinderella.2015.2160p.BluRay.x264.8bit.SDR.DTS-HD.MA.TrueHD.7.1.Atmos-SWTYBLZ
  24. Writing library                          : x264 core 157 r2935 545de2f
  25. Encoding settings                        : cabac=1 / ref=5 / deblock=1:-1:-1 / analyse=0x3:0x113 / me=umh / subme=10 / psy=1 / psy_rd=1.00:0.15 / mixed_ref=1 / me_range=48 / chroma_me=1 / trellis=2 / 8x8dct=1 / cqm=0 / deadzone=21,11 / fast_pskip=1 / chroma_qp_offset=-3 / threads=48 / lookahead_threads=4 / sliced_threads=0 / nr=0 / decimate=0 / interlaced=0 / bluray_compat=0 / constrained_intra=0 / bframes=3 / b_pyramid=2 / b_adapt=2 / b_bias=0 / direct=3 / weightb=1 / open_gop=0 / weightp=2 / keyint=250 / keyint_min=23 / scenecut=40 / intra_refresh=0 / rc_lookahead=50 / rc=crf / mbtree=1 / crf=18.0 / qcomp=0.60 / qpmin=0 / qpmax=69 / qpstep=4 / ip_ratio=1.40 / aq=1:1.00
  26. Default                                  : Yes
  27. Forced                                   : No
  28. Audio #1
  29. ID                                       : 2
  30. Format                                   : MLP FBA 16-ch
  31. Format/Info                              : Meridian Lossless Packing FBA with 16-channel presentation
  32. Commercial name                          : Dolby TrueHD with Dolby Atmos
  33. Codec ID                                 : A_TRUEHD
  34. Duration                                 : 1 h 45 min
  35. Bit rate mode                            : Variable
  36. Bit rate                                 : 4 681 kb/s
  37. Maximum bit rate                         : 8 343 kb/s
  38. Channel(s)                               : 8 channels
  39. Channel layout                           : L R C LFE Ls Rs Lb Rb
  40. Sampling rate                            : 48.0 kHz
  41. Frame rate                               : 1 200.000 FPS (40 SPF)
  42. Compression mode                         : Lossless
  43. Stream size                              : 3.45 GiB (8%)
  44. Title                                    : Cinderella.2015.2160p.BluRay.x264.8bit.SDR.DTS-HD.MA.TrueHD.7.1.Atmos-SWTYBLZ
  45. Language                                 : English
  46. Default                                  : Yes
  47. Forced                                   : No
  48. Number of dynamic objects                : 13
  49. Bed channel count                        : 1 channel
  50. Bed channel configuration                : LFE
  51. Audio #2
  52. ID                                       : 3
  53. Format                                   : DTS XLL
  54. Format/Info                              : Digital Theater Systems
  55. Commercial name                          : DTS-HD Master Audio
  56. Codec ID                                 : A_DTS
  57. Duration                                 : 1 h 45 min
  58. Bit rate mode                            : Variable
  59. Bit rate                                 : 3 945 kb/s
  60. Channel(s)                               : 8 channels
  61. Channel layout                           : C L R LFE Lb Rb Lss Rss
  62. Sampling rate                            : 48.0 kHz
  63. Frame rate                               : 93.750 FPS (512 SPF)
  64. Bit depth                                : 24 bits
  65. Compression mode                         : Lossless
  66. Stream size                              : 2.90 GiB (7%)
  67. Title                                    : Cinderella.2015.2160p.BluRay.x264.8bit.SDR.DTS-HD.MA.TrueHD.7.1.Atmos-SWTYBLZ
  68. Language                                 : English
  69. Default                                  : No
  70. Forced                                   : No
  71. Audio #3
  72. ID                                       : 4
  73. Format                                   : AC-3
  74. Format/Info                              : Audio Coding 3
  75. Commercial name                          : Dolby Digital
  76. Codec ID                                 : A_AC3
  77. Duration                                 : 1 h 45 min
  78. Bit rate mode                            : Constant
  79. Bit rate                                 : 640 kb/s
  80. Channel(s)                               : 6 channels
  81. Channel layout                           : L R C LFE Ls Rs
  82. Sampling rate                            : 48.0 kHz
  83. Frame rate                               : 31.250 FPS (1536 SPF)
  84. Bit depth                                : 16 bits
  85. Compression mode                         : Lossy
  86. Stream size                              : 482 MiB (1%)
  87. Title                                    : Cinderella.2015.2160p.BluRay.x264.8bit.SDR.DTS-HD.MA.TrueHD.7.1.Atmos-SWTYBLZ
  88. Language                                 : English
  89. Service kind                             : Complete Main
  90. Default                                  : No
  91. Forced                                   : No
  92. Text #1
  93. ID                                       : 5
  94. Format                                   : UTF-8
  95. Codec ID                                 : S_TEXT/UTF8
  96. Codec ID/Info                            : UTF-8 Plain Text
  97. Duration                                 : 1 h 44 min
  98. Bit rate                                 : 51 b/s
  99. Count of elements                        : 1421
  100. Stream size                              : 39.6 KiB (0%)
  101. Title                                    : English-SRT
  102. Language                                 : English
  103. Default                                  : Yes
  104. Forced                                   : No
  105. Text #2
  106. ID                                       : 6
  107. Format                                   : PGS
  108. Muxing mode                              : zlib
  109. Codec ID                                 : S_HDMV/PGS
  110. Codec ID/Info                            : Picture based subtitle format used on BDs/HD-DVDs
  111. Duration                                 : 1 h 44 min
  112. Bit rate                                 : 41.4 kb/s
  113. Count of elements                        : 3474
  114. Stream size                              : 31.0 MiB (0%)
  115. Title                                    : English-PGS
  116. Language                                 : English
  117. Default                                  : No
  118. Forced                                   : No
  119. Text #3
  120. ID                                       : 7
  121. Format                                   : PGS
  122. Muxing mode                              : zlib
  123. Codec ID                                 : S_HDMV/PGS
  124. Codec ID/Info                            : Picture based subtitle format used on BDs/HD-DVDs
  125. Duration                                 : 1 h 44 min
  126. Bit rate                                 : 34.2 kb/s
  127. Count of elements                        : 2874
  128. Stream size                              : 25.6 MiB (0%)
  129. Title                                    : French-PGS
  130. Language                                 : French
  131. Default                                  : No
  132. Forced                                   : No
  133. Text #4
  134. ID                                       : 8
  135. Format                                   : PGS
  136. Muxing mode                              : zlib
  137. Codec ID                                 : S_HDMV/PGS
  138. Codec ID/Info                            : Picture based subtitle format used on BDs/HD-DVDs
  139. Duration                                 : 1 h 44 min
  140. Bit rate                                 : 31.9 kb/s
  141. Count of elements                        : 2850
  142. Stream size                              : 23.8 MiB (0%)
  143. Title                                    : Spanish-PGS
  144. Language                                 : Spanish
  145. Default                                  : No
  146. Forced                                   : No
  147. Text #5
  148. ID                                       : 9
  149. Format                                   : PGS
  150. Muxing mode                              : zlib
  151. Codec ID                                 : S_HDMV/PGS
  152. Codec ID/Info                            : Picture based subtitle format used on BDs/HD-DVDs
  153. Duration                                 : 1 h 44 min
  154. Bit rate                                 : 24.0 kb/s
  155. Count of elements                        : 2396
  156. Stream size                              : 17.9 MiB (0%)
  157. Title                                    : Japanese-PGS
  158. Language                                 : Japanese
  159. Default                                  : No
  160. Forced                                   : No
  161. Menu
  162. 00:00:00.000                             : en:Chapter 01
  163. 00:06:35.436                             : en:Chapter 02
  164. 00:13:58.587                             : en:Chapter 03
  165. 00:17:55.908                             : en:Chapter 04
  166. 00:22:05.574                             : en:Chapter 05
  167. 00:26:36.553                             : en:Chapter 06
  168. 00:31:17.500                             : en:Chapter 07
  169. 00:34:37.408                             : en:Chapter 08
  170. 00:38:39.400                             : en:Chapter 09
  171. 00:42:54.697                             : en:Chapter 10
  172. 00:52:52.752                             : en:Chapter 11
  173. 01:03:13.956                             : en:Chapter 12
  174. 01:10:54.625                             : en:Chapter 13
  175. 01:16:42.723                             : en:Chapter 14
  176. 01:20:41.753                             : en:Chapter 15
  177. 01:25:35.713                             : en:Chapter 16
  178. 01:28:26.926                             : en:Chapter 17
  179. 01:39:11.528                             : en:Chapter 18
复制代码









                                       
                                       

                                       
                                       
                                       




回复

使用道具 举报

懒得打字嘛,点击右侧快捷回复 【右侧内容,后台自定义】
您需要登录后才可以回帖 登录 | 立即加入

本版积分规则

Archiver|小黑屋| 蓝光电影网 |网站地图

Copyright © 2021 Comsenz Inc. Powered by 蓝光电影网

蓝光电影网

本站内容由用户自主分享和转载自互联网,转载目的在于传递更多信息,并不代表本网赞同其观点和对其真实性负责。

如有侵权、违反国家法律政策行为,请联系我们,我们会第一时间及时清除和处理!

举报反馈邮箱:[email protected]

快速回复 返回顶部 返回列表