找回密码

蓝光电影网

查看: 5|回复: 0

[2160p] 宠物坟场/宠物公墓 Pet.Sematary.2019.2160p.BluRay.x264.8bit.SDR.DTS-HD.MA.TrueHD.7.1.Atmos-SWTYBLZ 37.69GB

[复制链接]
蓝光币
382
发表于 2019-6-30 23:13:48 | 显示全部楼层 |阅读模式


◎译  名 宠物墓地 / 宠物公墓 / 新宠物墓地 / 禁入墓地(台) / 诡墓(港)
◎片  名 Pet Sematary
◎年  代 2019
◎产  地 美国
◎类  别 悬疑 / 惊悚 / 可骇
◎语  言 英语
◎上映日期 2019-03-17(西南偏南电影节) / 2019-04-05(美国)
◎IMDb评分  6.0/10 from 30914 users
◎IMDb链接  http://www.imdb.com/title/tt0837563
◎豆瓣评分 5.8/10 from 3336 users
◎豆瓣链接 https://movie.douban.com/subject/1904722/
◎片  长 101分钟
◎导  演 凯文·库尔施 Kevin Kolsch / 丹尼斯·维德迈尔 Dennis Widmyer
◎编  剧 斯蒂芬·金 Stephen King / 麦特?格林伯格 Matt Greenberg / 杰夫·布勒 Jeff Buhler
◎主  演 杰森·克拉克 Jason Clarke
      艾米·西米茨 Amy Seimetz
      约翰·利思戈 John Lithgow
      杰特·劳伦斯 Jeté Laurence
      雨果·拉瓦 Hugo Lavoie
      卢卡斯·拉瓦 Lucas Lavoie
      奥布萨·艾哈迈德 Obssa Ahmed
      阿丽莎·布鲁克·莱文 Alyssa Brooke Levine
      玛丽亚·埃雷拉 Maria Herrera
      弗兰克·萧宾 Frank Schorpion
      琳达·E·史姑娘 Linda E. Smith
      索尼娅·玛丽亚·基里拉 Sonia Maria Chirila
      娜奥米·弗伦内特 Naomi Frenette
      艾丽森·奥唐奈尔 Alison O'Donnell

◎标  签 可骇 | 斯蒂芬·金 | 惊悚 | 美国 | 2019 | 灵异 | 小说改编 | 翻拍
◎简  介  
  自1989年的[宠物墓地]后,派拉蒙欲再次将史蒂芬·金的小说《宠物墓地》搬上大银幕。今朝肯定凯文·库尔施、丹尼斯·维德迈尔([闪亮的眼睛])执导该片。曾担任[康斯坦丁]、[变形金刚]制片人的洛伦佐·迪·博纳文图拉任影片制片人。小说故事围绕一家人和诡异的宠物墓地展开。
  1. Video
  2. ID                                       : 1
  3. Format                                   : AVC
  4. Format/Info                              : Advanced Video Codec
  5. Format profile                           : [email protected]
  6. Format settings                          : CABAC / 5 Ref Frames
  7. Format settings, CABAC                   : Yes
  8. Format settings, RefFrames               : 5 frames
  9. Codec ID                                 : V_MPEG4/ISO/AVC
  10. Duration                                 : 1 h 40 min
  11. Bit rate                                 : 44.9 Mb/s
  12. Width                                    : 3 840 pixels
  13. Height                                   : 1 608 pixels
  14. Display aspect ratio                     : 2.40:1
  15. Frame rate mode                          : Constant
  16. Frame rate                               : 23.976 (24000/1001) FPS
  17. Color space                              : YUV
  18. Chroma subsampling                       : 4:2:0
  19. Bit depth                                : 8 bits
  20. Scan type                                : Progressive
  21. Bits/(Pixel*Frame)                       : 0.303
  22. Stream size                              : 31.6 GiB (84%)
  23. Title                                    : Pet.Sematary.2019.2160p.BluRay.x264.8bit.SDR.DTS-HD.MA.TrueHD.7.1.Atmos-SWTYBLZ
  24. Writing library                          : x264 core 157 r2935 545de2f
  25. Encoding settings                        : cabac=1 / ref=5 / deblock=1:-1:-1 / analyse=0x3:0x113 / me=umh / subme=10 / psy=1 / psy_rd=1.00:0.15 / mixed_ref=1 / me_range=48 / chroma_me=1 / trellis=2 / 8x8dct=1 / cqm=0 / deadzone=21,11 / fast_pskip=1 / chroma_qp_offset=-3 / threads=50 / lookahead_threads=4 / sliced_threads=0 / nr=0 / decimate=0 / interlaced=0 / bluray_compat=0 / constrained_intra=0 / bframes=3 / b_pyramid=2 / b_adapt=2 / b_bias=0 / direct=3 / weightb=1 / open_gop=0 / weightp=2 / keyint=250 / keyint_min=23 / scenecut=40 / intra_refresh=0 / rc_lookahead=50 / rc=crf / mbtree=1 / crf=18.0 / qcomp=0.60 / qpmin=0 / qpmax=69 / qpstep=4 / ip_ratio=1.40 / aq=1:1.00
  26. Default                                  : Yes
  27. Forced                                   : No
  28. Audio #1
  29. ID                                       : 2
  30. Format                                   : MLP FBA 16-ch
  31. Format/Info                              : Meridian Lossless Packing FBA with 16-channel presentation
  32. Commercial name                          : Dolby TrueHD with Dolby Atmos
  33. Codec ID                                 : A_TRUEHD
  34. Duration                                 : 1 h 40 min
  35. Bit rate mode                            : Variable
  36. Bit rate                                 : 3 588 kb/s
  37. Maximum bit rate                         : 7 608 kb/s
  38. Channel(s)                               : 8 channels
  39. Channel layout                           : L R C LFE Ls Rs Lb Rb
  40. Sampling rate                            : 48.0 kHz
  41. Frame rate                               : 1 200.000 FPS (40 SPF)
  42. Compression mode                         : Lossless
  43. Stream size                              : 2.53 GiB (7%)
  44. Title                                    : Pet.Sematary.2019.2160p.BluRay.x264.8bit.SDR.DTS-HD.MA.TrueHD.7.1.Atmos-SWTYBLZ
  45. Language                                 : English
  46. Default                                  : Yes
  47. Forced                                   : No
  48. Number of dynamic objects                : 11
  49. Bed channel count                        : 1 channel
  50. Bed channel configuration                : LFE
  51. Audio #2
  52. ID                                       : 3
  53. Format                                   : DTS XLL
  54. Format/Info                              : Digital Theater Systems
  55. Commercial name                          : DTS-HD Master Audio
  56. Codec ID                                 : A_DTS
  57. Duration                                 : 1 h 40 min
  58. Bit rate mode                            : Variable
  59. Bit rate                                 : 3 929 kb/s
  60. Channel(s)                               : 8 channels
  61. Channel layout                           : C L R LFE Lb Rb Lss Rss
  62. Sampling rate                            : 48.0 kHz
  63. Frame rate                               : 93.750 FPS (512 SPF)
  64. Bit depth                                : 24 bits
  65. Compression mode                         : Lossless
  66. Stream size                              : 2.77 GiB (7%)
  67. Title                                    : Pet.Sematary.2019.2160p.BluRay.x264.8bit.SDR.DTS-HD.MA.TrueHD.7.1.Atmos-SWTYBLZ
  68. Language                                 : English
  69. Default                                  : No
  70. Forced                                   : No
  71. Audio #3
  72. ID                                       : 4
  73. Format                                   : AC-3
  74. Format/Info                              : Audio Coding 3
  75. Commercial name                          : Dolby Digital
  76. Codec ID                                 : A_AC3
  77. Duration                                 : 1 h 40 min
  78. Bit rate mode                            : Constant
  79. Bit rate                                 : 640 kb/s
  80. Channel(s)                               : 6 channels
  81. Channel layout                           : L R C LFE Ls Rs
  82. Sampling rate                            : 48.0 kHz
  83. Frame rate                               : 31.250 FPS (1536 SPF)
  84. Bit depth                                : 16 bits
  85. Compression mode                         : Lossy
  86. Stream size                              : 461 MiB (1%)
  87. Title                                    : Pet.Sematary.2019.2160p.BluRay.x264.8bit.SDR.DTS-HD.MA.TrueHD.7.1.Atmos-SWTYBLZ
  88. Language                                 : English
  89. Service kind                             : Complete Main
  90. Default                                  : No
  91. Forced                                   : No
  92. Text #1
  93. ID                                       : 5
  94. Format                                   : UTF-8
  95. Codec ID                                 : S_TEXT/UTF8
  96. Codec ID/Info                            : UTF-8 Plain Text
  97. Duration                                 : 1 h 32 min
  98. Bit rate                                 : 36 b/s
  99. Count of elements                        : 856
  100. Stream size                              : 24.6 KiB (0%)
  101. Title                                    : English-SRT
  102. Language                                 : English
  103. Default                                  : Yes
  104. Forced                                   : No
  105. Text #2
  106. ID                                       : 6
  107. Format                                   : PGS
  108. Muxing mode                              : zlib
  109. Codec ID                                 : S_HDMV/PGS
  110. Codec ID/Info                            : Picture based subtitle format used on BDs/HD-DVDs
  111. Duration                                 : 1 h 32 min
  112. Bit rate                                 : 21.9 kb/s
  113. Count of elements                        : 1712
  114. Stream size                              : 14.5 MiB (0%)
  115. Title                                    : English-PGS
  116. Language                                 : English
  117. Default                                  : No
  118. Forced                                   : No
  119. Text #3
  120. ID                                       : 7
  121. Format                                   : PGS
  122. Muxing mode                              : zlib
  123. Codec ID                                 : S_HDMV/PGS
  124. Codec ID/Info                            : Picture based subtitle format used on BDs/HD-DVDs
  125. Duration                                 : 1 h 36 min
  126. Bit rate                                 : 29.5 kb/s
  127. Count of elements                        : 2422
  128. Stream size                              : 20.4 MiB (0%)
  129. Title                                    : English-SDH-PGS
  130. Language                                 : English
  131. Default                                  : No
  132. Forced                                   : No
  133. Text #4
  134. ID                                       : 8
  135. Format                                   : PGS
  136. Muxing mode                              : zlib
  137. Codec ID                                 : S_HDMV/PGS
  138. Codec ID/Info                            : Picture based subtitle format used on BDs/HD-DVDs
  139. Duration                                 : 1 h 40 min
  140. Bit rate                                 : 10.2 kb/s
  141. Count of elements                        : 1742
  142. Stream size                              : 7.30 MiB (0%)
  143. Title                                    : Arabic-PGS
  144. Language                                 : Arabic
  145. Default                                  : No
  146. Forced                                   : No
  147. Text #5
  148. ID                                       : 9
  149. Format                                   : PGS
  150. Muxing mode                              : zlib
  151. Codec ID                                 : S_HDMV/PGS
  152. Codec ID/Info                            : Picture based subtitle format used on BDs/HD-DVDs
  153. Duration                                 : 1 h 40 min
  154. Bit rate                                 : 16.9 kb/s
  155. Count of elements                        : 1680
  156. Stream size                              : 12.1 MiB (0%)
  157. Title                                    : Chinese-PGS
  158. Language                                 : Chinese
  159. Default                                  : No
  160. Forced                                   : No
  161. Text #6
  162. ID                                       : 10
  163. Format                                   : PGS
  164. Muxing mode                              : zlib
  165. Codec ID                                 : S_HDMV/PGS
  166. Codec ID/Info                            : Picture based subtitle format used on BDs/HD-DVDs
  167. Duration                                 : 1 h 40 min
  168. Bit rate                                 : 16.3 kb/s
  169. Count of elements                        : 1692
  170. Stream size                              : 11.7 MiB (0%)
  171. Title                                    : Chinese-PGS
  172. Language                                 : Chinese
  173. Default                                  : No
  174. Forced                                   : No
  175. Text #7
  176. ID                                       : 11
  177. Format                                   : PGS
  178. Muxing mode                              : zlib
  179. Codec ID                                 : S_HDMV/PGS
  180. Codec ID/Info                            : Picture based subtitle format used on BDs/HD-DVDs
  181. Duration                                 : 1 h 40 min
  182. Bit rate                                 : 17.2 kb/s
  183. Count of elements                        : 1658
  184. Stream size                              : 12.3 MiB (0%)
  185. Title                                    : Czech-PGS
  186. Language                                 : Czech
  187. Default                                  : No
  188. Forced                                   : No
  189. Text #8
  190. ID                                       : 12
  191. Format                                   : PGS
  192. Muxing mode                              : zlib
  193. Codec ID                                 : S_HDMV/PGS
  194. Codec ID/Info                            : Picture based subtitle format used on BDs/HD-DVDs
  195. Duration                                 : 1 h 38 min
  196. Bit rate                                 : 18.0 kb/s
  197. Count of elements                        : 1400
  198. Stream size                              : 12.7 MiB (0%)
  199. Title                                    : Danish-PGS
  200. Language                                 : Danish
  201. Default                                  : No
  202. Forced                                   : No
  203. Text #9
  204. ID                                       : 13
  205. Format                                   : PGS
  206. Muxing mode                              : zlib
  207. Codec ID                                 : S_HDMV/PGS
  208. Codec ID/Info                            : Picture based subtitle format used on BDs/HD-DVDs
  209. Duration                                 : 1 h 38 min
  210. Bit rate                                 : 17.1 kb/s
  211. Count of elements                        : 1136
  212. Stream size                              : 12.0 MiB (0%)
  213. Title                                    : Dutch-PGS
  214. Language                                 : Dutch
  215. Default                                  : No
  216. Forced                                   : No
  217. Text #10
  218. ID                                       : 14
  219. Format                                   : PGS
  220. Muxing mode                              : zlib
  221. Codec ID                                 : S_HDMV/PGS
  222. Codec ID/Info                            : Picture based subtitle format used on BDs/HD-DVDs
  223. Duration                                 : 1 h 40 min
  224. Bit rate                                 : 18.9 kb/s
  225. Count of elements                        : 1730
  226. Stream size                              : 13.5 MiB (0%)
  227. Title                                    : Finnish-PGS
  228. Language                                 : Finnish
  229. Default                                  : No
  230. Forced                                   : No
  231. Text #11
  232. ID                                       : 15
  233. Format                                   : PGS
  234. Muxing mode                              : zlib
  235. Codec ID                                 : S_HDMV/PGS
  236. Codec ID/Info                            : Picture based subtitle format used on BDs/HD-DVDs
  237. Duration                                 : 1 h 40 min
  238. Bit rate                                 : 21.5 kb/s
  239. Count of elements                        : 1884
  240. Stream size                              : 15.4 MiB (0%)
  241. Title                                    : French-PGS
  242. Language                                 : French
  243. Default                                  : No
  244. Forced                                   : No
  245. Text #12
  246. ID                                       : 16
  247. Format                                   : PGS
  248. Muxing mode                              : zlib
  249. Codec ID                                 : S_HDMV/PGS
  250. Codec ID/Info                            : Picture based subtitle format used on BDs/HD-DVDs
  251. Duration                                 : 1 h 40 min
  252. Bit rate                                 : 17.1 kb/s
  253. Count of elements                        : 1698
  254. Stream size                              : 12.2 MiB (0%)
  255. Title                                    : French-PGS
  256. Language                                 : French
  257. Default                                  : No
  258. Forced                                   : No
  259. Text #13
  260. ID                                       : 17
  261. Format                                   : PGS
  262. Muxing mode                              : zlib
  263. Codec ID                                 : S_HDMV/PGS
  264. Codec ID/Info                            : Picture based subtitle format used on BDs/HD-DVDs
  265. Duration                                 : 1 h 39 min
  266. Bit rate                                 : 21.1 kb/s
  267. Count of elements                        : 1688
  268. Stream size                              : 15.1 MiB (0%)
  269. Title                                    : German-PGS
  270. Language                                 : German
  271. Default                                  : No
  272. Forced                                   : No
  273. Text #14
  274. ID                                       : 18
  275. Format                                   : PGS
  276. Muxing mode                              : zlib
  277. Codec ID                                 : S_HDMV/PGS
  278. Codec ID/Info                            : Picture based subtitle format used on BDs/HD-DVDs
  279. Duration                                 : 1 h 40 min
  280. Bit rate                                 : 20.2 kb/s
  281. Count of elements                        : 1582
  282. Stream size                              : 14.4 MiB (0%)
  283. Title                                    : Greek-PGS
  284. Language                                 : Greek
  285. Default                                  : No
  286. Forced                                   : No
  287. Text #15
  288. ID                                       : 19
  289. Format                                   : PGS
  290. Muxing mode                              : zlib
  291. Codec ID                                 : S_HDMV/PGS
  292. Codec ID/Info                            : Picture based subtitle format used on BDs/HD-DVDs
  293. Duration                                 : 1 h 38 min
  294. Bit rate                                 : 17.3 kb/s
  295. Count of elements                        : 1760
  296. Stream size                              : 12.1 MiB (0%)
  297. Title                                    : Hindi-PGS
  298. Language                                 : Hindi
  299. Default                                  : No
  300. Forced                                   : No
  301. Text #16
  302. ID                                       : 20
  303. Format                                   : PGS
  304. Muxing mode                              : zlib
  305. Codec ID                                 : S_HDMV/PGS
  306. Codec ID/Info                            : Picture based subtitle format used on BDs/HD-DVDs
  307. Duration                                 : 1 h 40 min
  308. Bit rate                                 : 18.9 kb/s
  309. Count of elements                        : 1728
  310. Stream size                              : 13.5 MiB (0%)
  311. Title                                    : Hungarian-PGS
  312. Language                                 : Hungarian
  313. Default                                  : No
  314. Forced                                   : No
  315. Text #17
  316. ID                                       : 21
  317. Format                                   : PGS
  318. Muxing mode                              : zlib
  319. Codec ID                                 : S_HDMV/PGS
  320. Codec ID/Info                            : Picture based subtitle format used on BDs/HD-DVDs
  321. Duration                                 : 1 h 38 min
  322. Bit rate                                 : 19.9 kb/s
  323. Count of elements                        : 1660
  324. Stream size                              : 14.0 MiB (0%)
  325. Title                                    : Icelandic-PGS
  326. Language                                 : Icelandic
  327. Default                                  : No
  328. Forced                                   : No
  329. Text #18
  330. ID                                       : 22
  331. Format                                   : PGS
  332. Muxing mode                              : zlib
  333. Codec ID                                 : S_HDMV/PGS
  334. Codec ID/Info                            : Picture based subtitle format used on BDs/HD-DVDs
  335. Duration                                 : 1 h 38 min
  336. Bit rate                                 : 19.2 kb/s
  337. Count of elements                        : 1588
  338. Stream size                              : 13.5 MiB (0%)
  339. Title                                    : Italian-PGS
  340. Language                                 : Italian
  341. Default                                  : No
  342. Forced                                   : No
  343. Text #19
  344. ID                                       : 23
  345. Format                                   : PGS
  346. Muxing mode                              : zlib
  347. Codec ID                                 : S_HDMV/PGS
  348. Codec ID/Info                            : Picture based subtitle format used on BDs/HD-DVDs
  349. Duration                                 : 1 h 32 min
  350. Bit rate                                 : 15.6 kb/s
  351. Count of elements                        : 1569
  352. Stream size                              : 10.3 MiB (0%)
  353. Title                                    : Japanese-PGS
  354. Language                                 : Japanese
  355. Default                                  : No
  356. Forced                                   : No
  357. Text #20
  358. ID                                       : 24
  359. Format                                   : PGS
  360. Muxing mode                              : zlib
  361. Codec ID                                 : S_HDMV/PGS
  362. Codec ID/Info                            : Picture based subtitle format used on BDs/HD-DVDs
  363. Duration                                 : 1 h 40 min
  364. Bit rate                                 : 11.9 kb/s
  365. Count of elements                        : 1660
  366. Stream size                              : 8.49 MiB (0%)
  367. Title                                    : Korean-PGS
  368. Language                                 : Korean
  369. Default                                  : No
  370. Forced                                   : No
  371. Text #21
  372. ID                                       : 25
  373. Format                                   : PGS
  374. Muxing mode                              : zlib
  375. Codec ID                                 : S_HDMV/PGS
  376. Codec ID/Info                            : Picture based subtitle format used on BDs/HD-DVDs
  377. Duration                                 : 1 h 38 min
  378. Bit rate                                 : 22.2 kb/s
  379. Count of elements                        : 1756
  380. Stream size                              : 15.6 MiB (0%)
  381. Title                                    : Malay-PGS
  382. Language                                 : Malay
  383. Default                                  : No
  384. Forced                                   : No
  385. Text #22
  386. ID                                       : 26
  387. Format                                   : PGS
  388. Muxing mode                              : zlib
  389. Codec ID                                 : S_HDMV/PGS
  390. Codec ID/Info                            : Picture based subtitle format used on BDs/HD-DVDs
  391. Duration                                 : 1 h 38 min
  392. Bit rate                                 : 17.1 kb/s
  393. Count of elements                        : 1644
  394. Stream size                              : 12.0 MiB (0%)
  395. Title                                    : Norwegian-PGS
  396. Language                                 : Norwegian
  397. Default                                  : No
  398. Forced                                   : No
  399. Text #23
  400. ID                                       : 27
  401. Format                                   : PGS
  402. Muxing mode                              : zlib
  403. Codec ID                                 : S_HDMV/PGS
  404. Codec ID/Info                            : Picture based subtitle format used on BDs/HD-DVDs
  405. Duration                                 : 1 h 40 min
  406. Bit rate                                 : 17.4 kb/s
  407. Count of elements                        : 1634
  408. Stream size                              : 12.4 MiB (0%)
  409. Title                                    : Polish-PGS
  410. Language                                 : Polish
  411. Default                                  : No
  412. Forced                                   : No
  413. Text #24
  414. ID                                       : 28
  415. Format                                   : PGS
  416. Muxing mode                              : zlib
  417. Codec ID                                 : S_HDMV/PGS
  418. Codec ID/Info                            : Picture based subtitle format used on BDs/HD-DVDs
  419. Duration                                 : 1 h 40 min
  420. Bit rate                                 : 19.7 kb/s
  421. Count of elements                        : 1636
  422. Stream size                              : 14.1 MiB (0%)
  423. Title                                    : Portuguese-PGS
  424. Language                                 : Portuguese
  425. Default                                  : No
  426. Forced                                   : No
  427. Text #25
  428. ID                                       : 29
  429. Format                                   : PGS
  430. Muxing mode                              : zlib
  431. Codec ID                                 : S_HDMV/PGS
  432. Codec ID/Info                            : Picture based subtitle format used on BDs/HD-DVDs
  433. Duration                                 : 1 h 40 min
  434. Bit rate                                 : 17.8 kb/s
  435. Count of elements                        : 1676
  436. Stream size                              : 12.7 MiB (0%)
  437. Title                                    : Romanian-PGS
  438. Language                                 : Romanian
  439. Default                                  : No
  440. Forced                                   : No
  441. Text #26
  442. ID                                       : 30
  443. Format                                   : PGS
  444. Muxing mode                              : zlib
  445. Codec ID                                 : S_HDMV/PGS
  446. Codec ID/Info                            : Picture based subtitle format used on BDs/HD-DVDs
  447. Duration                                 : 1 h 40 min
  448. Bit rate                                 : 18.7 kb/s
  449. Count of elements                        : 1746
  450. Stream size                              : 13.4 MiB (0%)
  451. Title                                    : Russian-PGS
  452. Language                                 : Russian
  453. Default                                  : No
  454. Forced                                   : No
  455. Text #27
  456. ID                                       : 31
  457. Format                                   : PGS
  458. Muxing mode                              : zlib
  459. Codec ID                                 : S_HDMV/PGS
  460. Codec ID/Info                            : Picture based subtitle format used on BDs/HD-DVDs
  461. Duration                                 : 1 h 40 min
  462. Bit rate                                 : 16.7 kb/s
  463. Count of elements                        : 1654
  464. Stream size                              : 11.9 MiB (0%)
  465. Title                                    : Slovak-PGS
  466. Language                                 : Slovak
  467. Default                                  : No
  468. Forced                                   : No
  469. Text #28
  470. ID                                       : 32
  471. Format                                   : PGS
  472. Muxing mode                              : zlib
  473. Codec ID                                 : S_HDMV/PGS
  474. Codec ID/Info                            : Picture based subtitle format used on BDs/HD-DVDs
  475. Duration                                 : 1 h 40 min
  476. Bit rate                                 : 18.9 kb/s
  477. Count of elements                        : 1676
  478. Stream size                              : 13.5 MiB (0%)
  479. Title                                    : Spanish-PGS
  480. Language                                 : Spanish
  481. Default                                  : No
  482. Forced                                   : No
  483. Text #29
  484. ID                                       : 33
  485. Format                                   : PGS
  486. Muxing mode                              : zlib
  487. Codec ID                                 : S_HDMV/PGS
  488. Codec ID/Info                            : Picture based subtitle format used on BDs/HD-DVDs
  489. Duration                                 : 1 h 40 min
  490. Bit rate                                 : 18.4 kb/s
  491. Count of elements                        : 1606
  492. Stream size                              : 13.2 MiB (0%)
  493. Title                                    : Spanish-PGS
  494. Language                                 : Spanish
  495. Default                                  : No
  496. Forced                                   : No
  497. Text #30
  498. ID                                       : 34
  499. Format                                   : PGS
  500. Muxing mode                              : zlib
  501. Codec ID                                 : S_HDMV/PGS
  502. Codec ID/Info                            : Picture based subtitle format used on BDs/HD-DVDs
  503. Duration                                 : 1 h 40 min
  504. Bit rate                                 : 19.1 kb/s
  505. Count of elements                        : 1614
  506. Stream size                              : 13.6 MiB (0%)
  507. Title                                    : Swedish-PGS
  508. Language                                 : Swedish
  509. Default                                  : No
  510. Forced                                   : No
  511. Text #31
  512. ID                                       : 35
  513. Format                                   : PGS
  514. Muxing mode                              : zlib
  515. Codec ID                                 : S_HDMV/PGS
  516. Codec ID/Info                            : Picture based subtitle format used on BDs/HD-DVDs
  517. Duration                                 : 1 h 40 min
  518. Bit rate                                 : 14.6 kb/s
  519. Count of elements                        : 1654
  520. Stream size                              : 10.4 MiB (0%)
  521. Title                                    : Thai-PGS
  522. Language                                 : Thai
  523. Default                                  : No
  524. Forced                                   : No
  525. Text #32
  526. ID                                       : 36
  527. Format                                   : PGS
  528. Muxing mode                              : zlib
  529. Codec ID                                 : S_HDMV/PGS
  530. Codec ID/Info                            : Picture based subtitle format used on BDs/HD-DVDs
  531. Duration                                 : 1 h 40 min
  532. Bit rate                                 : 19.7 kb/s
  533. Count of elements                        : 1662
  534. Stream size                              : 14.1 MiB (0%)
  535. Title                                    : Turkish-PGS
  536. Language                                 : Turkish
  537. Default                                  : No
  538. Forced                                   : No
  539. Menu
  540. 00:00:00.000                             : en:Chapter 01
  541. 00:07:16.353                             : en:Chapter 02
  542. 00:12:14.025                             : en:Chapter 03
  543. 00:19:38.386                             : en:Chapter 04
  544. 00:25:30.070                             : en:Chapter 05
  545. 00:30:09.725                             : en:Chapter 06
  546. 00:35:18.325                             : en:Chapter 07
  547. 00:46:02.843                             : en:Chapter 08
  548. 00:50:44.792                             : en:Chapter 09
  549. 00:57:47.964                             : en:Chapter 10
  550. 01:06:57.722                             : en:Chapter 11
  551. 01:14:12.573                             : en:Chapter 12
  552. 01:22:52.009                             : en:Chapter 13
  553. 01:32:19.909                             : en:Chapter 14
  554. 01:36:41.295                             : en:Chapter 15
复制代码










                                       
                                       

                                       
                                       
                                       




回复

使用道具 举报

懒得打字嘛,点击右侧快捷回复 【右侧内容,后台自定义】
您需要登录后才可以回帖 登录 | 立即加入

本版积分规则

Archiver|小黑屋| 蓝光电影网 |网站地图

Copyright © 2021 Comsenz Inc. Powered by 蓝光电影网

蓝光电影网

本站内容由用户自主分享和转载自互联网,转载目的在于传递更多信息,并不代表本网赞同其观点和对其真实性负责。

如有侵权、违反国家法律政策行为,请联系我们,我们会第一时间及时清除和处理!

举报反馈邮箱:[email protected]

快速回复 返回顶部 返回列表