找回密码

蓝光电影网

查看: 9|回复: 0

[2160p] 宠物坟场/宠物公墓 Pet.Sematary.2019.2160p.BluRay.x265.10bit.SDR.DTS-HD.MA.TrueHD.7.1.Atmos-SWTYBLZ 36.41GB

[复制链接]
蓝光币
382
发表于 2019-6-30 23:10:27 | 显示全部楼层 |阅读模式


◎译  名 宠物墓地 / 宠物公墓 / 新宠物墓地 / 禁入墓地(台) / 诡墓(港)
◎片  名 Pet Sematary
◎年  代 2019
◎产  地 美国
◎类  别 悬疑 / 惊悚 / 可骇
◎语  言 英语
◎上映日期 2019-03-17(西南偏南电影节) / 2019-04-05(美国)
◎IMDb评分  6.0/10 from 30914 users
◎IMDb链接  http://www.imdb.com/title/tt0837563
◎豆瓣评分 5.8/10 from 3336 users
◎豆瓣链接 https://movie.douban.com/subject/1904722/
◎片  长 101分钟
◎导  演 凯文·库尔施 Kevin Kolsch / 丹尼斯·维德迈尔 Dennis Widmyer
◎编  剧 斯蒂芬·金 Stephen King / 麦特?格林伯格 Matt Greenberg / 杰夫·布勒 Jeff Buhler
◎主  演 杰森·克拉克 Jason Clarke
      艾米·西米茨 Amy Seimetz
      约翰·利思戈 John Lithgow
      杰特·劳伦斯 Jeté Laurence
      雨果·拉瓦 Hugo Lavoie
      卢卡斯·拉瓦 Lucas Lavoie
      奥布萨·艾哈迈德 Obssa Ahmed
      阿丽莎·布鲁克·莱文 Alyssa Brooke Levine
      玛丽亚·埃雷拉 Maria Herrera
      弗兰克·萧宾 Frank Schorpion
      琳达·E·史姑娘 Linda E. Smith
      索尼娅·玛丽亚·基里拉 Sonia Maria Chirila
      娜奥米·弗伦内特 Naomi Frenette
      艾丽森·奥唐奈尔 Alison O'Donnell

◎标  签 可骇 | 斯蒂芬·金 | 惊悚 | 美国 | 2019 | 灵异 | 小说改编 | 翻拍
◎简  介  
  自1989年的[宠物墓地]后,派拉蒙欲再次将史蒂芬·金的小说《宠物墓地》搬上大银幕。今朝肯定凯文·库尔施、丹尼斯·维德迈尔([闪亮的眼睛])执导该片。曾担任[康斯坦丁]、[变形金刚]制片人的洛伦佐·迪·博纳文图拉任影片制片人。小说故事围绕一家人和诡异的宠物墓地展开。
  1. Video
  2. ID                                       : 1
  3. Format                                   : HEVC
  4. Format/Info                              : High Efficiency Video Coding
  5. Format profile                           : Main [email protected]@High
  6. Codec ID                                 : V_MPEGH/ISO/HEVC
  7. Duration                                 : 1 h 40 min
  8. Bit rate                                 : 43.1 Mb/s
  9. Width                                    : 3 840 pixels
  10. Height                                   : 1 608 pixels
  11. Display aspect ratio                     : 2.40:1
  12. Frame rate mode                          : Constant
  13. Frame rate                               : 23.976 (24000/1001) FPS
  14. Color space                              : YUV
  15. Chroma subsampling                       : 4:2:0
  16. Bit depth                                : 10 bits
  17. Bits/(Pixel*Frame)                       : 0.291
  18. Stream size                              : 30.3 GiB (84%)
  19. Title                                    : Pet.Sematary.2019.2160p.BluRay.x265.10bit.SDR.DTS-HD.MA.TrueHD.7.1.Atmos-SWTYBLZ
  20. Writing library                          : x265 3.0ed72af837053:[Windows][GCC 8.2.0][64 bit] 10bit
  21. Encoding settings                        : cpuid=1111039 / frame-threads=16 / numa-pools=24,24,24,24 / wpp / no-pmode / no-pme / no-psnr / no-ssim / log-level=2 / input-csp=1 / input-res=3840x1608 / interlace=0 / total-frames=145002 / level-idc=51 / high-tier=1 / uhd-bd=0 / ref=3 / no-allow-non-conformance / repeat-headers / annexb / aud / hrd / info / hash=0 / no-temporal-layers / no-open-gop / min-keyint=1 / keyint=24 / gop-lookahead=0 / bframes=4 / b-adapt=2 / b-pyramid / bframe-bias=0 / rc-lookahead=25 / lookahead-slices=4 / scenecut=40 / radl=0 / no-splice / no-intra-refresh / ctu=64 / min-cu-size=8 / no-rect / no-amp / max-tu-size=32 / tu-inter-depth=1 / tu-intra-depth=1 / limit-tu=0 / rdoq-level=0 / dynamic-rd=0.00 / no-ssim-rd / signhide / no-tskip / nr-intra=0 / nr-inter=0 / no-constrained-intra / strong-intra-smoothing / max-merge=2 / limit-refs=3 / no-limit-modes / me=1 / subme=2 / merange=57 / temporal-mvp / weightp / no-weightb / no-analyze-src-pics / deblock=0:0 / no-sao / no-sao-non-deblock / rd=3 / no-early-skip / rskip / no-fast-intra / no-tskip-fast / no-cu-lossless / no-b-intra / no-splitrd-skip / rdpenalty=0 / psy-rd=2.00 / psy-rdoq=0.00 / no-rd-refine / no-lossless / cbqpoffs=0 / crqpoffs=0 / rc=crf / crf=16.0 / qcomp=0.60 / qpstep=4 / stats-write=0 / stats-read=0 / vbv-maxrate=160000 / vbv-bufsize=160000 / vbv-init=0.9 / crf-max=0.0 / crf-min=0.0 / ipratio=1.40 / pbratio=1.30 / aq-mode=1 / aq-strength=1.00 / cutree / zone-count=0 / no-strict-cbr / qg-size=32 / no-rc-grain / qpmax=69 / qpmin=0 / no-const-vbv / sar=1 / overscan=0 / videoformat=5 / range=0 / colorprim=2 / transfer=2 / colormatrix=2 / chromaloc=0 / display-window=0 / max-cll=0,0 / min-luma=0 / max-luma=1023 / log2-max-poc-lsb=8 / vui-timing-info / vui-hrd-info / slices=1 / opt-qp-pps / opt-ref-list-length-pps / no-multi-pass-opt-rps / scenecut-bias=0.05 / no-opt-cu-delta-qp / no-aq-motion / no-hdr / no-hdr-opt / no-dhdr10-opt / no-idr-recovery-sei / analysis-reuse-level=5 / scale-factor=0 / refine-intra=0 / refine-inter=0 / refine-mv=0 / refine-ctu-distortion=0 / no-limit-sao / ctu-info=0 / no-lowpass-dct / refine-analysis-type=0 / copy-pic=1 / max-ausize-factor=1.0 / no-dynamic-refine / no-single-sei / no-hevc-aq / qp-adaptation-range=1.00
  22. Default                                  : Yes
  23. Forced                                   : No
  24. Audio #1
  25. ID                                       : 2
  26. Format                                   : MLP FBA 16-ch
  27. Format/Info                              : Meridian Lossless Packing FBA with 16-channel presentation
  28. Commercial name                          : Dolby TrueHD with Dolby Atmos
  29. Codec ID                                 : A_TRUEHD
  30. Duration                                 : 1 h 40 min
  31. Bit rate mode                            : Variable
  32. Bit rate                                 : 3 588 kb/s
  33. Maximum bit rate                         : 7 608 kb/s
  34. Channel(s)                               : 8 channels
  35. Channel layout                           : L R C LFE Ls Rs Lb Rb
  36. Sampling rate                            : 48.0 kHz
  37. Frame rate                               : 1 200.000 FPS (40 SPF)
  38. Compression mode                         : Lossless
  39. Stream size                              : 2.53 GiB (7%)
  40. Title                                    : Pet.Sematary.2019.2160p.BluRay.x265.10bit.SDR.DTS-HD.MA.TrueHD.7.1.Atmos-SWTYBLZ
  41. Language                                 : English
  42. Default                                  : Yes
  43. Forced                                   : No
  44. Number of dynamic objects                : 11
  45. Bed channel count                        : 1 channel
  46. Bed channel configuration                : LFE
  47. Audio #2
  48. ID                                       : 3
  49. Format                                   : DTS XLL
  50. Format/Info                              : Digital Theater Systems
  51. Commercial name                          : DTS-HD Master Audio
  52. Codec ID                                 : A_DTS
  53. Duration                                 : 1 h 40 min
  54. Bit rate mode                            : Variable
  55. Bit rate                                 : 3 929 kb/s
  56. Channel(s)                               : 8 channels
  57. Channel layout                           : C L R LFE Lb Rb Lss Rss
  58. Sampling rate                            : 48.0 kHz
  59. Frame rate                               : 93.750 FPS (512 SPF)
  60. Bit depth                                : 24 bits
  61. Compression mode                         : Lossless
  62. Stream size                              : 2.77 GiB (8%)
  63. Title                                    : Pet.Sematary.2019.2160p.BluRay.x265.10bit.SDR.DTS-HD.MA.TrueHD.7.1.Atmos-SWTYBLZ
  64. Language                                 : English
  65. Default                                  : No
  66. Forced                                   : No
  67. Audio #3
  68. ID                                       : 4
  69. Format                                   : AC-3
  70. Format/Info                              : Audio Coding 3
  71. Commercial name                          : Dolby Digital
  72. Codec ID                                 : A_AC3
  73. Duration                                 : 1 h 40 min
  74. Bit rate mode                            : Constant
  75. Bit rate                                 : 640 kb/s
  76. Channel(s)                               : 6 channels
  77. Channel layout                           : L R C LFE Ls Rs
  78. Sampling rate                            : 48.0 kHz
  79. Frame rate                               : 31.250 FPS (1536 SPF)
  80. Bit depth                                : 16 bits
  81. Compression mode                         : Lossy
  82. Stream size                              : 461 MiB (1%)
  83. Title                                    : Pet.Sematary.2019.2160p.BluRay.x265.10bit.SDR.DTS-HD.MA.TrueHD.7.1.Atmos-SWTYBLZ
  84. Language                                 : English
  85. Service kind                             : Complete Main
  86. Default                                  : No
  87. Forced                                   : No
  88. Text #1
  89. ID                                       : 5
  90. Format                                   : UTF-8
  91. Codec ID                                 : S_TEXT/UTF8
  92. Codec ID/Info                            : UTF-8 Plain Text
  93. Duration                                 : 1 h 32 min
  94. Bit rate                                 : 36 b/s
  95. Count of elements                        : 856
  96. Stream size                              : 24.6 KiB (0%)
  97. Title                                    : English-SRT
  98. Language                                 : English
  99. Default                                  : Yes
  100. Forced                                   : No
  101. Text #2
  102. ID                                       : 6
  103. Format                                   : PGS
  104. Muxing mode                              : zlib
  105. Codec ID                                 : S_HDMV/PGS
  106. Codec ID/Info                            : Picture based subtitle format used on BDs/HD-DVDs
  107. Duration                                 : 1 h 32 min
  108. Bit rate                                 : 21.9 kb/s
  109. Count of elements                        : 1712
  110. Stream size                              : 14.5 MiB (0%)
  111. Title                                    : English-PGS
  112. Language                                 : English
  113. Default                                  : No
  114. Forced                                   : No
  115. Text #3
  116. ID                                       : 7
  117. Format                                   : PGS
  118. Muxing mode                              : zlib
  119. Codec ID                                 : S_HDMV/PGS
  120. Codec ID/Info                            : Picture based subtitle format used on BDs/HD-DVDs
  121. Duration                                 : 1 h 36 min
  122. Bit rate                                 : 29.5 kb/s
  123. Count of elements                        : 2422
  124. Stream size                              : 20.4 MiB (0%)
  125. Title                                    : English-SDH-PGS
  126. Language                                 : English
  127. Default                                  : No
  128. Forced                                   : No
  129. Text #4
  130. ID                                       : 8
  131. Format                                   : PGS
  132. Muxing mode                              : zlib
  133. Codec ID                                 : S_HDMV/PGS
  134. Codec ID/Info                            : Picture based subtitle format used on BDs/HD-DVDs
  135. Duration                                 : 1 h 40 min
  136. Bit rate                                 : 10.2 kb/s
  137. Count of elements                        : 1742
  138. Stream size                              : 7.30 MiB (0%)
  139. Title                                    : Arabic-PGS
  140. Language                                 : Arabic
  141. Default                                  : No
  142. Forced                                   : No
  143. Text #5
  144. ID                                       : 9
  145. Format                                   : PGS
  146. Muxing mode                              : zlib
  147. Codec ID                                 : S_HDMV/PGS
  148. Codec ID/Info                            : Picture based subtitle format used on BDs/HD-DVDs
  149. Duration                                 : 1 h 40 min
  150. Bit rate                                 : 16.9 kb/s
  151. Count of elements                        : 1680
  152. Stream size                              : 12.1 MiB (0%)
  153. Title                                    : Chinese-PGS
  154. Language                                 : Chinese
  155. Default                                  : No
  156. Forced                                   : No
  157. Text #6
  158. ID                                       : 10
  159. Format                                   : PGS
  160. Muxing mode                              : zlib
  161. Codec ID                                 : S_HDMV/PGS
  162. Codec ID/Info                            : Picture based subtitle format used on BDs/HD-DVDs
  163. Duration                                 : 1 h 40 min
  164. Bit rate                                 : 16.3 kb/s
  165. Count of elements                        : 1692
  166. Stream size                              : 11.7 MiB (0%)
  167. Title                                    : Chinese-PGS
  168. Language                                 : Chinese
  169. Default                                  : No
  170. Forced                                   : No
  171. Text #7
  172. ID                                       : 11
  173. Format                                   : PGS
  174. Muxing mode                              : zlib
  175. Codec ID                                 : S_HDMV/PGS
  176. Codec ID/Info                            : Picture based subtitle format used on BDs/HD-DVDs
  177. Duration                                 : 1 h 40 min
  178. Bit rate                                 : 17.2 kb/s
  179. Count of elements                        : 1658
  180. Stream size                              : 12.3 MiB (0%)
  181. Title                                    : Czech-PGS
  182. Language                                 : Czech
  183. Default                                  : No
  184. Forced                                   : No
  185. Text #8
  186. ID                                       : 12
  187. Format                                   : PGS
  188. Muxing mode                              : zlib
  189. Codec ID                                 : S_HDMV/PGS
  190. Codec ID/Info                            : Picture based subtitle format used on BDs/HD-DVDs
  191. Duration                                 : 1 h 38 min
  192. Bit rate                                 : 18.0 kb/s
  193. Count of elements                        : 1400
  194. Stream size                              : 12.7 MiB (0%)
  195. Title                                    : Danish-PGS
  196. Language                                 : Danish
  197. Default                                  : No
  198. Forced                                   : No
  199. Text #9
  200. ID                                       : 13
  201. Format                                   : PGS
  202. Muxing mode                              : zlib
  203. Codec ID                                 : S_HDMV/PGS
  204. Codec ID/Info                            : Picture based subtitle format used on BDs/HD-DVDs
  205. Duration                                 : 1 h 38 min
  206. Bit rate                                 : 17.1 kb/s
  207. Count of elements                        : 1136
  208. Stream size                              : 12.0 MiB (0%)
  209. Title                                    : Dutch-PGS
  210. Language                                 : Dutch
  211. Default                                  : No
  212. Forced                                   : No
  213. Text #10
  214. ID                                       : 14
  215. Format                                   : PGS
  216. Muxing mode                              : zlib
  217. Codec ID                                 : S_HDMV/PGS
  218. Codec ID/Info                            : Picture based subtitle format used on BDs/HD-DVDs
  219. Duration                                 : 1 h 40 min
  220. Bit rate                                 : 18.9 kb/s
  221. Count of elements                        : 1730
  222. Stream size                              : 13.5 MiB (0%)
  223. Title                                    : Finnish-PGS
  224. Language                                 : Finnish
  225. Default                                  : No
  226. Forced                                   : No
  227. Text #11
  228. ID                                       : 15
  229. Format                                   : PGS
  230. Muxing mode                              : zlib
  231. Codec ID                                 : S_HDMV/PGS
  232. Codec ID/Info                            : Picture based subtitle format used on BDs/HD-DVDs
  233. Duration                                 : 1 h 40 min
  234. Bit rate                                 : 21.5 kb/s
  235. Count of elements                        : 1884
  236. Stream size                              : 15.4 MiB (0%)
  237. Title                                    : French-PGS
  238. Language                                 : French
  239. Default                                  : No
  240. Forced                                   : No
  241. Text #12
  242. ID                                       : 16
  243. Format                                   : PGS
  244. Muxing mode                              : zlib
  245. Codec ID                                 : S_HDMV/PGS
  246. Codec ID/Info                            : Picture based subtitle format used on BDs/HD-DVDs
  247. Duration                                 : 1 h 40 min
  248. Bit rate                                 : 17.1 kb/s
  249. Count of elements                        : 1698
  250. Stream size                              : 12.2 MiB (0%)
  251. Title                                    : French-PGS
  252. Language                                 : French
  253. Default                                  : No
  254. Forced                                   : No
  255. Text #13
  256. ID                                       : 17
  257. Format                                   : PGS
  258. Muxing mode                              : zlib
  259. Codec ID                                 : S_HDMV/PGS
  260. Codec ID/Info                            : Picture based subtitle format used on BDs/HD-DVDs
  261. Duration                                 : 1 h 39 min
  262. Bit rate                                 : 21.1 kb/s
  263. Count of elements                        : 1688
  264. Stream size                              : 15.1 MiB (0%)
  265. Title                                    : German-PGS
  266. Language                                 : German
  267. Default                                  : No
  268. Forced                                   : No
  269. Text #14
  270. ID                                       : 18
  271. Format                                   : PGS
  272. Muxing mode                              : zlib
  273. Codec ID                                 : S_HDMV/PGS
  274. Codec ID/Info                            : Picture based subtitle format used on BDs/HD-DVDs
  275. Duration                                 : 1 h 40 min
  276. Bit rate                                 : 20.2 kb/s
  277. Count of elements                        : 1582
  278. Stream size                              : 14.4 MiB (0%)
  279. Title                                    : Greek-PGS
  280. Language                                 : Greek
  281. Default                                  : No
  282. Forced                                   : No
  283. Text #15
  284. ID                                       : 19
  285. Format                                   : PGS
  286. Muxing mode                              : zlib
  287. Codec ID                                 : S_HDMV/PGS
  288. Codec ID/Info                            : Picture based subtitle format used on BDs/HD-DVDs
  289. Duration                                 : 1 h 38 min
  290. Bit rate                                 : 17.3 kb/s
  291. Count of elements                        : 1760
  292. Stream size                              : 12.1 MiB (0%)
  293. Title                                    : Hindi-PGS
  294. Language                                 : Hindi
  295. Default                                  : No
  296. Forced                                   : No
  297. Text #16
  298. ID                                       : 20
  299. Format                                   : PGS
  300. Muxing mode                              : zlib
  301. Codec ID                                 : S_HDMV/PGS
  302. Codec ID/Info                            : Picture based subtitle format used on BDs/HD-DVDs
  303. Duration                                 : 1 h 40 min
  304. Bit rate                                 : 18.9 kb/s
  305. Count of elements                        : 1728
  306. Stream size                              : 13.5 MiB (0%)
  307. Title                                    : Hungarian-PGS
  308. Language                                 : Hungarian
  309. Default                                  : No
  310. Forced                                   : No
  311. Text #17
  312. ID                                       : 21
  313. Format                                   : PGS
  314. Muxing mode                              : zlib
  315. Codec ID                                 : S_HDMV/PGS
  316. Codec ID/Info                            : Picture based subtitle format used on BDs/HD-DVDs
  317. Duration                                 : 1 h 38 min
  318. Bit rate                                 : 19.9 kb/s
  319. Count of elements                        : 1660
  320. Stream size                              : 14.0 MiB (0%)
  321. Title                                    : Icelandic-PGS
  322. Language                                 : Icelandic
  323. Default                                  : No
  324. Forced                                   : No
  325. Text #18
  326. ID                                       : 22
  327. Format                                   : PGS
  328. Muxing mode                              : zlib
  329. Codec ID                                 : S_HDMV/PGS
  330. Codec ID/Info                            : Picture based subtitle format used on BDs/HD-DVDs
  331. Duration                                 : 1 h 38 min
  332. Bit rate                                 : 19.2 kb/s
  333. Count of elements                        : 1588
  334. Stream size                              : 13.5 MiB (0%)
  335. Title                                    : Italian-PGS
  336. Language                                 : Italian
  337. Default                                  : No
  338. Forced                                   : No
  339. Text #19
  340. ID                                       : 23
  341. Format                                   : PGS
  342. Muxing mode                              : zlib
  343. Codec ID                                 : S_HDMV/PGS
  344. Codec ID/Info                            : Picture based subtitle format used on BDs/HD-DVDs
  345. Duration                                 : 1 h 32 min
  346. Bit rate                                 : 15.6 kb/s
  347. Count of elements                        : 1569
  348. Stream size                              : 10.3 MiB (0%)
  349. Title                                    : Japanese-PGS
  350. Language                                 : Japanese
  351. Default                                  : No
  352. Forced                                   : No
  353. Text #20
  354. ID                                       : 24
  355. Format                                   : PGS
  356. Muxing mode                              : zlib
  357. Codec ID                                 : S_HDMV/PGS
  358. Codec ID/Info                            : Picture based subtitle format used on BDs/HD-DVDs
  359. Duration                                 : 1 h 40 min
  360. Bit rate                                 : 11.9 kb/s
  361. Count of elements                        : 1660
  362. Stream size                              : 8.49 MiB (0%)
  363. Title                                    : Korean-PGS
  364. Language                                 : Korean
  365. Default                                  : No
  366. Forced                                   : No
  367. Text #21
  368. ID                                       : 25
  369. Format                                   : PGS
  370. Muxing mode                              : zlib
  371. Codec ID                                 : S_HDMV/PGS
  372. Codec ID/Info                            : Picture based subtitle format used on BDs/HD-DVDs
  373. Duration                                 : 1 h 38 min
  374. Bit rate                                 : 22.2 kb/s
  375. Count of elements                        : 1756
  376. Stream size                              : 15.6 MiB (0%)
  377. Title                                    : Malay-PGS
  378. Language                                 : Malay
  379. Default                                  : No
  380. Forced                                   : No
  381. Text #22
  382. ID                                       : 26
  383. Format                                   : PGS
  384. Muxing mode                              : zlib
  385. Codec ID                                 : S_HDMV/PGS
  386. Codec ID/Info                            : Picture based subtitle format used on BDs/HD-DVDs
  387. Duration                                 : 1 h 38 min
  388. Bit rate                                 : 17.1 kb/s
  389. Count of elements                        : 1644
  390. Stream size                              : 12.0 MiB (0%)
  391. Title                                    : Norwegian-PGS
  392. Language                                 : Norwegian
  393. Default                                  : No
  394. Forced                                   : No
  395. Text #23
  396. ID                                       : 27
  397. Format                                   : PGS
  398. Muxing mode                              : zlib
  399. Codec ID                                 : S_HDMV/PGS
  400. Codec ID/Info                            : Picture based subtitle format used on BDs/HD-DVDs
  401. Duration                                 : 1 h 40 min
  402. Bit rate                                 : 17.4 kb/s
  403. Count of elements                        : 1634
  404. Stream size                              : 12.4 MiB (0%)
  405. Title                                    : Polish-PGS
  406. Language                                 : Polish
  407. Default                                  : No
  408. Forced                                   : No
  409. Text #24
  410. ID                                       : 28
  411. Format                                   : PGS
  412. Muxing mode                              : zlib
  413. Codec ID                                 : S_HDMV/PGS
  414. Codec ID/Info                            : Picture based subtitle format used on BDs/HD-DVDs
  415. Duration                                 : 1 h 40 min
  416. Bit rate                                 : 19.7 kb/s
  417. Count of elements                        : 1636
  418. Stream size                              : 14.1 MiB (0%)
  419. Title                                    : Portuguese-PGS
  420. Language                                 : Portuguese
  421. Default                                  : No
  422. Forced                                   : No
  423. Text #25
  424. ID                                       : 29
  425. Format                                   : PGS
  426. Muxing mode                              : zlib
  427. Codec ID                                 : S_HDMV/PGS
  428. Codec ID/Info                            : Picture based subtitle format used on BDs/HD-DVDs
  429. Duration                                 : 1 h 40 min
  430. Bit rate                                 : 17.8 kb/s
  431. Count of elements                        : 1676
  432. Stream size                              : 12.7 MiB (0%)
  433. Title                                    : Romanian-PGS
  434. Language                                 : Romanian
  435. Default                                  : No
  436. Forced                                   : No
  437. Text #26
  438. ID                                       : 30
  439. Format                                   : PGS
  440. Muxing mode                              : zlib
  441. Codec ID                                 : S_HDMV/PGS
  442. Codec ID/Info                            : Picture based subtitle format used on BDs/HD-DVDs
  443. Duration                                 : 1 h 40 min
  444. Bit rate                                 : 18.7 kb/s
  445. Count of elements                        : 1746
  446. Stream size                              : 13.4 MiB (0%)
  447. Title                                    : Russian-PGS
  448. Language                                 : Russian
  449. Default                                  : No
  450. Forced                                   : No
  451. Text #27
  452. ID                                       : 31
  453. Format                                   : PGS
  454. Muxing mode                              : zlib
  455. Codec ID                                 : S_HDMV/PGS
  456. Codec ID/Info                            : Picture based subtitle format used on BDs/HD-DVDs
  457. Duration                                 : 1 h 40 min
  458. Bit rate                                 : 16.7 kb/s
  459. Count of elements                        : 1654
  460. Stream size                              : 11.9 MiB (0%)
  461. Title                                    : Slovak-PGS
  462. Language                                 : Slovak
  463. Default                                  : No
  464. Forced                                   : No
  465. Text #28
  466. ID                                       : 32
  467. Format                                   : PGS
  468. Muxing mode                              : zlib
  469. Codec ID                                 : S_HDMV/PGS
  470. Codec ID/Info                            : Picture based subtitle format used on BDs/HD-DVDs
  471. Duration                                 : 1 h 40 min
  472. Bit rate                                 : 18.9 kb/s
  473. Count of elements                        : 1676
  474. Stream size                              : 13.5 MiB (0%)
  475. Title                                    : Spanish-PGS
  476. Language                                 : Spanish
  477. Default                                  : No
  478. Forced                                   : No
  479. Text #29
  480. ID                                       : 33
  481. Format                                   : PGS
  482. Muxing mode                              : zlib
  483. Codec ID                                 : S_HDMV/PGS
  484. Codec ID/Info                            : Picture based subtitle format used on BDs/HD-DVDs
  485. Duration                                 : 1 h 40 min
  486. Bit rate                                 : 18.4 kb/s
  487. Count of elements                        : 1606
  488. Stream size                              : 13.2 MiB (0%)
  489. Title                                    : Spanish-PGS
  490. Language                                 : Spanish
  491. Default                                  : No
  492. Forced                                   : No
  493. Text #30
  494. ID                                       : 34
  495. Format                                   : PGS
  496. Muxing mode                              : zlib
  497. Codec ID                                 : S_HDMV/PGS
  498. Codec ID/Info                            : Picture based subtitle format used on BDs/HD-DVDs
  499. Duration                                 : 1 h 40 min
  500. Bit rate                                 : 19.1 kb/s
  501. Count of elements                        : 1614
  502. Stream size                              : 13.6 MiB (0%)
  503. Title                                    : Swedish-PGS
  504. Language                                 : Swedish
  505. Default                                  : No
  506. Forced                                   : No
  507. Text #31
  508. ID                                       : 35
  509. Format                                   : PGS
  510. Muxing mode                              : zlib
  511. Codec ID                                 : S_HDMV/PGS
  512. Codec ID/Info                            : Picture based subtitle format used on BDs/HD-DVDs
  513. Duration                                 : 1 h 40 min
  514. Bit rate                                 : 14.6 kb/s
  515. Count of elements                        : 1654
  516. Stream size                              : 10.4 MiB (0%)
  517. Title                                    : Thai-PGS
  518. Language                                 : Thai
  519. Default                                  : No
  520. Forced                                   : No
  521. Text #32
  522. ID                                       : 36
  523. Format                                   : PGS
  524. Muxing mode                              : zlib
  525. Codec ID                                 : S_HDMV/PGS
  526. Codec ID/Info                            : Picture based subtitle format used on BDs/HD-DVDs
  527. Duration                                 : 1 h 40 min
  528. Bit rate                                 : 19.7 kb/s
  529. Count of elements                        : 1662
  530. Stream size                              : 14.1 MiB (0%)
  531. Title                                    : Turkish-PGS
  532. Language                                 : Turkish
  533. Default                                  : No
  534. Forced                                   : No
  535. Menu
  536. 00:00:00.000                             : en:Chapter 01
  537. 00:07:16.353                             : en:Chapter 02
  538. 00:12:14.025                             : en:Chapter 03
  539. 00:19:38.386                             : en:Chapter 04
  540. 00:25:30.070                             : en:Chapter 05
  541. 00:30:09.725                             : en:Chapter 06
  542. 00:35:18.325                             : en:Chapter 07
  543. 00:46:02.843                             : en:Chapter 08
  544. 00:50:44.792                             : en:Chapter 09
  545. 00:57:47.964                             : en:Chapter 10
  546. 01:06:57.722                             : en:Chapter 11
  547. 01:14:12.573                             : en:Chapter 12
  548. 01:22:52.009                             : en:Chapter 13
  549. 01:32:19.909                             : en:Chapter 14
  550. 01:36:41.295                             : en:Chapter 15
复制代码










                                       
                                       

                                       
                                       
                                       




回复

使用道具 举报

懒得打字嘛,点击右侧快捷回复 【右侧内容,后台自定义】
您需要登录后才可以回帖 登录 | 立即加入

本版积分规则

Archiver|小黑屋| 蓝光电影网 |网站地图

Copyright © 2021 Comsenz Inc. Powered by 蓝光电影网

蓝光电影网

本站内容由用户自主分享和转载自互联网,转载目的在于传递更多信息,并不代表本网赞同其观点和对其真实性负责。

如有侵权、违反国家法律政策行为,请联系我们,我们会第一时间及时清除和处理!

举报反馈邮箱:[email protected]

快速回复 返回顶部 返回列表