找回密码

蓝光电影网

查看: 8|回复: 0

[UHD.HEVC] 权力的游戏 第一季 Game.of.Thrones.S01.2160p.BluRay.REMUX.HEVC.DTS-HD.MA.TrueHD.7.1.Atmos-FGT 295.96GB

[复制链接]
蓝光币
382
发表于 2019-5-22 21:02:36 | 显示全部楼层 |阅读模式




◎译  名 权利的游戏 第一季 / A Song of Ice and Fire: Game of Thrones Season 1 / 冰与火之歌:权利的游戏 第一季 / 王座游戏 第一季
◎片  名 Game of Thrones Season 1
◎年  代 2011
◎产  地 美国 / 英国
◎类  别 剧情 / 奇异 / 冒险
◎语  言 英语 / 多斯拉克语
◎上映日期 2011-04-17(美国)
◎IMDb评分  9.5/10 from 1508232 users
◎IMDb链接  http://www.imdb.com/title/tt0944947
◎豆瓣评分 9.4/10 from 247468 users
◎豆瓣链接 https://movie.douban.com/subject/3016187/
◎集  数 10
◎片  长 60分钟
◎导  演 蒂莫西·范·帕腾 Timothy Van Patten / 布莱恩·柯克 Brian Kirk / 丹尼尔·米纳汉 Daniel Minahan / 阿兰·泰勒 Alan Taylor
◎编  剧 戴维·贝尼奥夫 David Benioff / D·B·威斯 D.B. Weiss / George R.R. Martin (novel)
◎主  演 伊萨克·亨普斯特德-怀特 Isaac Hempstead-Wright
      查里斯·丹斯 Charles Dance
      John C. Bradley
      罗恩·多纳基 Ron Donachie
      伊恩·麦克尔希尼 Ian McElhinney
      肖恩·宾 Sean Bean
      米歇尔·费尔利 Michelle Fairley
      艾米莉亚·克拉克 Emilia Clarke
      伊恩·格雷 Iain Glen
      基特·哈灵顿 Kit Harington
      尼可拉·科斯特-瓦尔道 Nikolaj Coster-Waldau

◎标  签 美剧 | 史诗 | 奇异 | HBO | 魔幻 | 美国 | 电视剧 | 2011
◎简  介  
  《权利的游戏》是一部中世纪史诗奇异题材的电视持续剧,该剧以美国作家乔治·R·R·马丁的奇异巨作《冰与火之歌》七部曲为根本改编创作。
故事布景中虚拟的天下,分为两片大陆:位于西面的“日落国家”维斯特洛;位于东面的类似亚欧大陆。维斯特洛大陆边境处发现太古传闻中早已灭绝的生物起头,危险也渐渐在靠近这里。这片大陆的临冬城主暨北境管辖艾德史塔克家属也迎来了老友兼国王劳勃·拜拉席恩的来访。国王希望艾德·史塔克(肖恩·宾 Sean Bean 饰)能担任辅弼一职,匹敌诡计夺取铁王座的叛军。危情一触即发,全部王国看似和蔼的概况下却是波涛暗涌。权高位重的拜拉席恩家属、勇敢善良的史塔克家属、诡计谋取王位的坦格利安家属、有着不成告人奥秘的兰尼斯特家属。这些家属各怀鬼胎,这个国家将会堕入一场混战.....
◎获奖情况  
  第69届金球奖(2012)
  电视类 最好剧情类剧集(提名)
  电视类 最好男配角 彼特·丁拉基
  第12届美国视觉结果协会奖(2014)
  最好广告/广播节目CG布景(提名) Patrick Zentis / Mayur Patel
  第12届美国电影学会奖(2011)
  年度佳剧

  1. Video #1
  2. ID                                       : 1
  3. Format                                   : HEVC
  4. Format/Info                              : High Efficiency Video Coding
  5. Commercial name                          : HDR10
  6. Format profile                           : Main [email protected]@High
  7. Codec ID                                 : V_MPEGH/ISO/HEVC
  8. Duration                                 : 1 h 1 min
  9. Bit rate                                 : 51.7 Mb/s
  10. Width                                    : 3 840 pixels
  11. Height                                   : 2 160 pixels
  12. Display aspect ratio                     : 16:9
  13. Frame rate mode                          : Constant
  14. Frame rate                               : 23.976 (24000/1001) FPS
  15. Color space                              : YUV
  16. Chroma subsampling                       : 4:2:0 (Type 2)
  17. Bit depth                                : 10 bits
  18. Bits/(Pixel*Frame)                       : 0.260
  19. Stream size                              : 22.3 GiB (72%)
  20. Title                                    : Game.of.Thrones.S01E01.2160p.BluRay.REMUX.HEVC.DTS-HD.MA.TrueHD.7.1.Atmos-FGT
  21. Default                                  : Yes
  22. Forced                                   : No
  23. Color range                              : Limited
  24. Color primaries                          : BT.2020
  25. Transfer characteristics                 : PQ
  26. Matrix coefficients                      : BT.2020 non-constant
  27. Mastering display color primaries        : BT.2020
  28. Mastering display luminance              : min: 0.0020 cd/m2, max: 1000 cd/m2
  29. Video #2
  30. ID                                       : 2
  31. Format                                   : HEVC
  32. Format/Info                              : High Efficiency Video Coding
  33. Commercial name                          : HDR10
  34. Format profile                           : Main [email protected]@High
  35. Codec ID                                 : V_MPEGH/ISO/HEVC
  36. Duration                                 : 1 h 1 min
  37. Bit rate                                 : 3 337 kb/s
  38. Width                                    : 1 920 pixels
  39. Height                                   : 1 080 pixels
  40. Display aspect ratio                     : 16:9
  41. Frame rate mode                          : Constant
  42. Frame rate                               : 23.976 (24000/1001) FPS
  43. Color space                              : YUV
  44. Chroma subsampling                       : 4:2:0 (Type 2)
  45. Bit depth                                : 10 bits
  46. Bits/(Pixel*Frame)                       : 0.067
  47. Stream size                              : 1.44 GiB (5%)
  48. Title                                    : Game.of.Thrones.S01E01.2160p.BluRay.REMUX.HEVC.DTS-HD.MA.TrueHD.7.1.Atmos-FGT
  49. Default                                  : No
  50. Forced                                   : No
  51. Color range                              : Limited
  52. Color primaries                          : BT.2020
  53. Transfer characteristics                 : PQ
  54. Matrix coefficients                      : BT.2020 non-constant
  55. Mastering display color primaries        : BT.2020
  56. Mastering display luminance              : min: 0.0020 cd/m2, max: 1000 cd/m2
  57. Audio #1
  58. ID                                       : 3
  59. Format                                   : TrueHD
  60. Format profile                           : TrueHD+Atmos / TrueHD
  61. Codec ID                                 : A_TRUEHD
  62. Duration                                 : 1 h 1 min
  63. Bit rate mode                            : Variable
  64. Bit rate                                 : 5 056 kb/s
  65. Maximum bit rate                         : 7 887 kb/s
  66. Channel(s)                               : Object Based / 8 channels
  67. Channel positions                        : Object Based / Front: L C R, Side: L R, Back: L R, LFE
  68. Sampling rate                            :  / 48.0 kHz
  69. Frame rate                               : 1 200.000 FPS (40 SPF)
  70. Compression mode                         : Lossless
  71. Stream size                              : 2.18 GiB (7%)
  72. Title                                    : Game.of.Thrones.S01E01.2160p.BluRay.REMUX.HEVC.DTS-HD.MA.TrueHD.7.1.Atmos-FGT
  73. Language                                 : English
  74. Default                                  : Yes
  75. Forced                                   : No
  76. Audio #2
  77. ID                                       : 4
  78. Format                                   : DTS
  79. Format/Info                              : Digital Theater Systems
  80. Format profile                           : MA / Core
  81. Codec ID                                 : A_DTS
  82. Duration                                 : 1 h 1 min
  83. Bit rate mode                            : Variable / Constant
  84. Bit rate                                 : 4 109 kb/s / 1 509 kb/s
  85. Channel(s)                               : 8 channels / 6 channels
  86. Channel positions                        : Front: L C R, Side: L R, Back: L R, LFE / Front: L C R, Side: L R, LFE
  87. Sampling rate                            : 48.0 kHz
  88. Frame rate                               : 93.750 FPS (512 SPF)
  89. Bit depth                                : 24 bits
  90. Compression mode                         : Lossless / Lossy
  91. Stream size                              : 1.77 GiB (6%)
  92. Title                                    : Game.of.Thrones.S01E01.2160p.BluRay.REMUX.HEVC.DTS-HD.MA.TrueHD.7.1.Atmos-FGT
  93. Default                                  : No
  94. Forced                                   : No
  95. Audio #3
  96. ID                                       : 5
  97. Format                                   : AC-3
  98. Format/Info                              : Audio Coding 3
  99. Codec ID                                 : A_AC3
  100. Duration                                 : 1 h 1 min
  101. Bit rate mode                            : Constant
  102. Bit rate                                 : 640 kb/s
  103. Channel(s)                               : 6 channels
  104. Channel positions                        : Front: L C R, Side: L R, LFE
  105. Sampling rate                            : 48.0 kHz
  106. Frame rate                               : 31.250 FPS (1536 SPF)
  107. Bit depth                                : 16 bits
  108. Compression mode                         : Lossy
  109. Stream size                              : 282 MiB (1%)
  110. Title                                    : Game.of.Thrones.S01E01.2160p.BluRay.REMUX.HEVC.DTS-HD.MA.TrueHD.7.1.Atmos-FGT
  111. Language                                 : English
  112. Service kind                             : Complete Main
  113. Default                                  : No
  114. Forced                                   : No
  115. Audio #4
  116. ID                                       : 6
  117. Format                                   : AC-3
  118. Format/Info                              : Audio Coding 3
  119. Codec ID                                 : A_AC3
  120. Duration                                 : 1 h 1 min
  121. Bit rate mode                            : Constant
  122. Bit rate                                 : 640 kb/s
  123. Channel(s)                               : 6 channels
  124. Channel positions                        : Front: L C R, Side: L R, LFE
  125. Sampling rate                            : 48.0 kHz
  126. Frame rate                               : 31.250 FPS (1536 SPF)
  127. Bit depth                                : 16 bits
  128. Compression mode                         : Lossy
  129. Stream size                              : 282 MiB (1%)
  130. Title                                    : Game.of.Thrones.S01E01.2160p.BluRay.REMUX.HEVC.DTS-HD.MA.TrueHD.7.1.Atmos-FGT
  131. Language                                 : English
  132. Service kind                             : Complete Main
  133. Default                                  : No
  134. Forced                                   : No
  135. Audio #5
  136. ID                                       : 7
  137. Format                                   : AC-3
  138. Format/Info                              : Audio Coding 3
  139. Codec ID                                 : A_AC3
  140. Duration                                 : 1 h 1 min
  141. Bit rate mode                            : Constant
  142. Bit rate                                 : 448 kb/s
  143. Channel(s)                               : 6 channels
  144. Channel positions                        : Front: L C R, Side: L R, LFE
  145. Sampling rate                            : 48.0 kHz
  146. Frame rate                               : 31.250 FPS (1536 SPF)
  147. Bit depth                                : 16 bits
  148. Compression mode                         : Lossy
  149. Stream size                              : 198 MiB (1%)
  150. Title                                    : Game.of.Thrones.S01E01.2160p.BluRay.REMUX.HEVC.DTS-HD.MA.TrueHD.7.1.Atmos-FGT
  151. Language                                 : French
  152. Service kind                             : Complete Main
  153. Default                                  : No
  154. Forced                                   : No
  155. Audio #6
  156. ID                                       : 8
  157. Format                                   : AC-3
  158. Format/Info                              : Audio Coding 3
  159. Codec ID                                 : A_AC3
  160. Duration                                 : 1 h 1 min
  161. Bit rate mode                            : Constant
  162. Bit rate                                 : 256 kb/s
  163. Channel(s)                               : 2 channels
  164. Channel positions                        : Front: L R
  165. Sampling rate                            : 48.0 kHz
  166. Frame rate                               : 31.250 FPS (1536 SPF)
  167. Bit depth                                : 16 bits
  168. Compression mode                         : Lossy
  169. Stream size                              : 113 MiB (0%)
  170. Title                                    : Game.of.Thrones.S01E01.2160p.BluRay.REMUX.HEVC.DTS-HD.MA.TrueHD.7.1.Atmos-FGT
  171. Language                                 : Spanish
  172. Service kind                             : Complete Main
  173. Default                                  : No
  174. Forced                                   : No
  175. Audio #7
  176. ID                                       : 9
  177. Format                                   : AC-3
  178. Format/Info                              : Audio Coding 3
  179. Codec ID                                 : A_AC3
  180. Duration                                 : 1 h 1 min
  181. Bit rate mode                            : Constant
  182. Bit rate                                 : 448 kb/s
  183. Channel(s)                               : 6 channels
  184. Channel positions                        : Front: L C R, Side: L R, LFE
  185. Sampling rate                            : 48.0 kHz
  186. Frame rate                               : 31.250 FPS (1536 SPF)
  187. Bit depth                                : 16 bits
  188. Compression mode                         : Lossy
  189. Stream size                              : 198 MiB (1%)
  190. Title                                    : Game.of.Thrones.S01E01.2160p.BluRay.REMUX.HEVC.DTS-HD.MA.TrueHD.7.1.Atmos-FGT
  191. Language                                 : Spanish
  192. Service kind                             : Complete Main
  193. Default                                  : No
  194. Forced                                   : No
  195. Audio #8
  196. ID                                       : 10
  197. Format                                   : AC-3
  198. Format/Info                              : Audio Coding 3
  199. Codec ID                                 : A_AC3
  200. Duration                                 : 1 h 1 min
  201. Bit rate mode                            : Constant
  202. Bit rate                                 : 448 kb/s
  203. Channel(s)                               : 6 channels
  204. Channel positions                        : Front: L C R, Side: L R, LFE
  205. Sampling rate                            : 48.0 kHz
  206. Frame rate                               : 31.250 FPS (1536 SPF)
  207. Bit depth                                : 16 bits
  208. Compression mode                         : Lossy
  209. Stream size                              : 198 MiB (1%)
  210. Title                                    : Game.of.Thrones.S01E01.2160p.BluRay.REMUX.HEVC.DTS-HD.MA.TrueHD.7.1.Atmos-FGT
  211. Language                                 : German
  212. Service kind                             : Complete Main
  213. Default                                  : No
  214. Forced                                   : No
  215. Audio #9
  216. ID                                       : 11
  217. Format                                   : AC-3
  218. Format/Info                              : Audio Coding 3
  219. Codec ID                                 : A_AC3
  220. Duration                                 : 1 h 1 min
  221. Bit rate mode                            : Constant
  222. Bit rate                                 : 448 kb/s
  223. Channel(s)                               : 6 channels
  224. Channel positions                        : Front: L C R, Side: L R, LFE
  225. Sampling rate                            : 48.0 kHz
  226. Frame rate                               : 31.250 FPS (1536 SPF)
  227. Bit depth                                : 16 bits
  228. Compression mode                         : Lossy
  229. Stream size                              : 198 MiB (1%)
  230. Title                                    : Game.of.Thrones.S01E01.2160p.BluRay.REMUX.HEVC.DTS-HD.MA.TrueHD.7.1.Atmos-FGT
  231. Language                                 : Italian
  232. Service kind                             : Complete Main
  233. Default                                  : No
  234. Forced                                   : No
  235. Audio #10
  236. ID                                       : 12
  237. Format                                   : DTS
  238. Format/Info                              : Digital Theater Systems
  239. Codec ID                                 : A_DTS
  240. Duration                                 : 1 h 1 min
  241. Bit rate mode                            : Constant
  242. Bit rate                                 : 768 kb/s
  243. Channel(s)                               : 2 channels
  244. Channel positions                        : Front: L R
  245. Sampling rate                            : 48.0 kHz
  246. Frame rate                               : 93.750 FPS (512 SPF)
  247. Bit depth                                : 24 bits
  248. Compression mode                         : Lossy
  249. Stream size                              : 339 MiB (1%)
  250. Title                                    : Game.of.Thrones.S01E01.2160p.BluRay.REMUX.HEVC.DTS-HD.MA.TrueHD.7.1.Atmos-FGT
  251. Language                                 : Portuguese
  252. Default                                  : No
  253. Forced                                   : No
  254. Audio #11
  255. ID                                       : 13
  256. Format                                   : DTS
  257. Format/Info                              : Digital Theater Systems
  258. Codec ID                                 : A_DTS
  259. Duration                                 : 1 h 1 min
  260. Bit rate mode                            : Constant
  261. Bit rate                                 : 768 kb/s
  262. Channel(s)                               : 2 channels
  263. Channel positions                        : Front: L R
  264. Sampling rate                            : 48.0 kHz
  265. Frame rate                               : 93.750 FPS (512 SPF)
  266. Bit depth                                : 24 bits
  267. Compression mode                         : Lossy
  268. Stream size                              : 339 MiB (1%)
  269. Title                                    : Game.of.Thrones.S01E01.2160p.BluRay.REMUX.HEVC.DTS-HD.MA.TrueHD.7.1.Atmos-FGT
  270. Language                                 : Czech
  271. Default                                  : No
  272. Forced                                   : No
  273. Audio #12
  274. ID                                       : 14
  275. Format                                   : DTS
  276. Format/Info                              : Digital Theater Systems
  277. Codec ID                                 : A_DTS
  278. Duration                                 : 1 h 1 min
  279. Bit rate mode                            : Constant
  280. Bit rate                                 : 768 kb/s
  281. Channel(s)                               : 2 channels
  282. Channel positions                        : Front: L R
  283. Sampling rate                            : 48.0 kHz
  284. Frame rate                               : 93.750 FPS (512 SPF)
  285. Bit depth                                : 24 bits
  286. Compression mode                         : Lossy
  287. Stream size                              : 339 MiB (1%)
  288. Title                                    : Game.of.Thrones.S01E01.2160p.BluRay.REMUX.HEVC.DTS-HD.MA.TrueHD.7.1.Atmos-FGT
  289. Language                                 : Hungarian
  290. Default                                  : No
  291. Forced                                   : No
  292. Audio #13
  293. ID                                       : 15
  294. Format                                   : DTS
  295. Format/Info                              : Digital Theater Systems
  296. Codec ID                                 : A_DTS
  297. Duration                                 : 1 h 1 min
  298. Bit rate mode                            : Constant
  299. Bit rate                                 : 768 kb/s
  300. Channel(s)                               : 2 channels
  301. Channel positions                        : Front: L R
  302. Sampling rate                            : 48.0 kHz
  303. Frame rate                               : 93.750 FPS (512 SPF)
  304. Bit depth                                : 24 bits
  305. Compression mode                         : Lossy
  306. Stream size                              : 339 MiB (1%)
  307. Title                                    : Game.of.Thrones.S01E01.2160p.BluRay.REMUX.HEVC.DTS-HD.MA.TrueHD.7.1.Atmos-FGT
  308. Language                                 : Polish
  309. Default                                  : No
  310. Forced                                   : No
  311. Audio #14
  312. ID                                       : 16
  313. Format                                   : DTS
  314. Format/Info                              : Digital Theater Systems
  315. Codec ID                                 : A_DTS
  316. Duration                                 : 1 h 1 min
  317. Bit rate mode                            : Constant
  318. Bit rate                                 : 768 kb/s
  319. Channel(s)                               : 6 channels
  320. Channel positions                        : Front: L C R, Side: L R, LFE
  321. Sampling rate                            : 48.0 kHz
  322. Frame rate                               : 93.750 FPS (512 SPF)
  323. Bit depth                                : 24 bits
  324. Compression mode                         : Lossy
  325. Stream size                              : 339 MiB (1%)
  326. Title                                    : Game.of.Thrones.S01E01.2160p.BluRay.REMUX.HEVC.DTS-HD.MA.TrueHD.7.1.Atmos-FGT
  327. Language                                 : Russian
  328. Default                                  : No
  329. Forced                                   : No
  330. Audio #15
  331. ID                                       : 17
  332. Format                                   : AC-3
  333. Format/Info                              : Audio Coding 3
  334. Codec ID                                 : A_AC3
  335. Duration                                 : 1 h 1 min
  336. Bit rate mode                            : Constant
  337. Bit rate                                 : 448 kb/s
  338. Channel(s)                               : 6 channels
  339. Channel positions                        : Front: L C R, Side: L R, LFE
  340. Sampling rate                            : 48.0 kHz
  341. Frame rate                               : 31.250 FPS (1536 SPF)
  342. Bit depth                                : 16 bits
  343. Compression mode                         : Lossy
  344. Stream size                              : 198 MiB (1%)
  345. Title                                    : Game.of.Thrones.S01E01.2160p.BluRay.REMUX.HEVC.DTS-HD.MA.TrueHD.7.1.Atmos-FGT
  346. Language                                 : English
  347. Service kind                             : Complete Main
  348. Default                                  : No
  349. Forced                                   : No
  350. Text #1
  351. ID                                       : 18
  352. Format                                   : PGS
  353. Muxing mode                              : zlib
  354. Codec ID                                 : S_HDMV/PGS
  355. Codec ID/Info                            : Picture based subtitle format used on BDs/HD-DVDs
  356. Duration                                 : 1 h 0 min
  357. Bit rate                                 : 33.7 kb/s
  358. Count of elements                        : 1290
  359. Stream size                              : 14.5 MiB (0%)
  360. Title                                    : English-PGS
  361. Language                                 : English
  362. Default                                  : Yes
  363. Forced                                   : No
  364. Text #2
  365. ID                                       : 19
  366. Format                                   : PGS
  367. Muxing mode                              : zlib
  368. Codec ID                                 : S_HDMV/PGS
  369. Codec ID/Info                            : Picture based subtitle format used on BDs/HD-DVDs
  370. Duration                                 : 58 min 29 s
  371. Bit rate                                 : 32.3 kb/s
  372. Count of elements                        : 1102
  373. Stream size                              : 13.5 MiB (0%)
  374. Title                                    : French-PGS
  375. Language                                 : French
  376. Default                                  : No
  377. Forced                                   : No
  378. Text #3
  379. ID                                       : 20
  380. Format                                   : PGS
  381. Muxing mode                              : zlib
  382. Codec ID                                 : S_HDMV/PGS
  383. Codec ID/Info                            : Picture based subtitle format used on BDs/HD-DVDs
  384. Duration                                 : 58 min 29 s
  385. Bit rate                                 : 31.7 kb/s
  386. Count of elements                        : 1104
  387. Stream size                              : 13.3 MiB (0%)
  388. Title                                    : Spanish-PGS
  389. Language                                 : Spanish
  390. Default                                  : No
  391. Forced                                   : No
  392. Text #4
  393. ID                                       : 21
  394. Format                                   : PGS
  395. Muxing mode                              : zlib
  396. Codec ID                                 : S_HDMV/PGS
  397. Codec ID/Info                            : Picture based subtitle format used on BDs/HD-DVDs
  398. Duration                                 : 58 min 29 s
  399. Bit rate                                 : 31.9 kb/s
  400. Count of elements                        : 1104
  401. Stream size                              : 13.3 MiB (0%)
  402. Title                                    : Spanish-PGS
  403. Language                                 : Spanish
  404. Default                                  : No
  405. Forced                                   : No
  406. Text #5
  407. ID                                       : 22
  408. Format                                   : PGS
  409. Muxing mode                              : zlib
  410. Codec ID                                 : S_HDMV/PGS
  411. Codec ID/Info                            : Picture based subtitle format used on BDs/HD-DVDs
  412. Duration                                 : 58 min 29 s
  413. Bit rate                                 : 37.0 kb/s
  414. Count of elements                        : 1102
  415. Stream size                              : 15.5 MiB (0%)
  416. Title                                    : German-PGS
  417. Language                                 : German
  418. Default                                  : No
  419. Forced                                   : No
  420. Text #6
  421. ID                                       : 23
  422. Format                                   : PGS
  423. Muxing mode                              : zlib
  424. Codec ID                                 : S_HDMV/PGS
  425. Codec ID/Info                            : Picture based subtitle format used on BDs/HD-DVDs
  426. Duration                                 : 1 h 0 min
  427. Bit rate                                 : 32.9 kb/s
  428. Count of elements                        : 1296
  429. Stream size                              : 14.2 MiB (0%)
  430. Title                                    : Italian-PGS
  431. Language                                 : Italian
  432. Default                                  : No
  433. Forced                                   : No
  434. Text #7
  435. ID                                       : 24
  436. Format                                   : PGS
  437. Muxing mode                              : zlib
  438. Codec ID                                 : S_HDMV/PGS
  439. Codec ID/Info                            : Picture based subtitle format used on BDs/HD-DVDs
  440. Duration                                 : 58 min 29 s
  441. Bit rate                                 : 29.2 kb/s
  442. Count of elements                        : 1102
  443. Stream size                              : 12.2 MiB (0%)
  444. Title                                    : Portuguese-PGS
  445. Language                                 : Portuguese
  446. Default                                  : No
  447. Forced                                   : No
  448. Text #8
  449. ID                                       : 25
  450. Format                                   : PGS
  451. Muxing mode                              : zlib
  452. Codec ID                                 : S_HDMV/PGS
  453. Codec ID/Info                            : Picture based subtitle format used on BDs/HD-DVDs
  454. Duration                                 : 57 min 13 s
  455. Bit rate                                 : 29.3 kb/s
  456. Count of elements                        : 900
  457. Stream size                              : 12.0 MiB (0%)
  458. Title                                    : Czech-PGS
  459. Language                                 : Czech
  460. Default                                  : No
  461. Forced                                   : No
  462. Text #9
  463. ID                                       : 26
  464. Format                                   : PGS
  465. Muxing mode                              : zlib
  466. Codec ID                                 : S_HDMV/PGS
  467. Codec ID/Info                            : Picture based subtitle format used on BDs/HD-DVDs
  468. Duration                                 : 58 min 20 s
  469. Bit rate                                 : 24.5 kb/s
  470. Count of elements                        : 1068
  471. Stream size                              : 10.2 MiB (0%)
  472. Title                                    : Hungarian-PGS
  473. Language                                 : Hungarian
  474. Default                                  : No
  475. Forced                                   : No
  476. Text #10
  477. ID                                       : 27
  478. Format                                   : PGS
  479. Muxing mode                              : zlib
  480. Codec ID                                 : S_HDMV/PGS
  481. Codec ID/Info                            : Picture based subtitle format used on BDs/HD-DVDs
  482. Duration                                 : 58 min 23 s
  483. Bit rate                                 : 24.7 kb/s
  484. Count of elements                        : 944
  485. Stream size                              : 10.3 MiB (0%)
  486. Title                                    : Polish-PGS
  487. Language                                 : Polish
  488. Default                                  : No
  489. Forced                                   : No
  490. Text #11
  491. ID                                       : 28
  492. Format                                   : PGS
  493. Muxing mode                              : zlib
  494. Codec ID                                 : S_HDMV/PGS
  495. Codec ID/Info                            : Picture based subtitle format used on BDs/HD-DVDs
  496. Duration                                 : 58 min 28 s
  497. Bit rate                                 : 24.1 kb/s
  498. Count of elements                        : 1164
  499. Stream size                              : 10.1 MiB (0%)
  500. Title                                    : Russian-PGS
  501. Language                                 : Russian
  502. Default                                  : No
  503. Forced                                   : No
  504. Text #12
  505. ID                                       : 29
  506. Format                                   : PGS
  507. Muxing mode                              : zlib
  508. Codec ID                                 : S_HDMV/PGS
  509. Codec ID/Info                            : Picture based subtitle format used on BDs/HD-DVDs
  510. Duration                                 : 58 min 29 s
  511. Bit rate                                 : 29.6 kb/s
  512. Count of elements                        : 1076
  513. Stream size                              : 12.4 MiB (0%)
  514. Title                                    : Dutch-PGS
  515. Language                                 : Dutch
  516. Default                                  : No
  517. Forced                                   : No
  518. Text #13
  519. ID                                       : 30
  520. Format                                   : PGS
  521. Muxing mode                              : zlib
  522. Codec ID                                 : S_HDMV/PGS
  523. Codec ID/Info                            : Picture based subtitle format used on BDs/HD-DVDs
  524. Duration                                 : 58 min 29 s
  525. Bit rate                                 : 31.2 kb/s
  526. Count of elements                        : 1102
  527. Stream size                              : 13.1 MiB (0%)
  528. Title                                    : Danish-PGS
  529. Language                                 : Danish
  530. Default                                  : No
  531. Forced                                   : No
  532. Text #14
  533. ID                                       : 31
  534. Format                                   : PGS
  535. Muxing mode                              : zlib
  536. Codec ID                                 : S_HDMV/PGS
  537. Codec ID/Info                            : Picture based subtitle format used on BDs/HD-DVDs
  538. Duration                                 : 58 min 29 s
  539. Bit rate                                 : 27.1 kb/s
  540. Count of elements                        : 1104
  541. Stream size                              : 11.3 MiB (0%)
  542. Title                                    : Finnish-PGS
  543. Language                                 : Finnish
  544. Default                                  : No
  545. Forced                                   : No
  546. Text #15
  547. ID                                       : 32
  548. Format                                   : PGS
  549. Muxing mode                              : zlib
  550. Codec ID                                 : S_HDMV/PGS
  551. Codec ID/Info                            : Picture based subtitle format used on BDs/HD-DVDs
  552. Duration                                 : 58 min 29 s
  553. Bit rate                                 : 29.5 kb/s
  554. Count of elements                        : 1104
  555. Stream size                              : 12.4 MiB (0%)
  556. Title                                    : Norwegian-PGS
  557. Language                                 : Norwegian
  558. Default                                  : No
  559. Forced                                   : No
  560. Text #16
  561. ID                                       : 33
  562. Format                                   : PGS
  563. Muxing mode                              : zlib
  564. Codec ID                                 : S_HDMV/PGS
  565. Codec ID/Info                            : Picture based subtitle format used on BDs/HD-DVDs
  566. Duration                                 : 58 min 29 s
  567. Bit rate                                 : 29.3 kb/s
  568. Count of elements                        : 1104
  569. Stream size                              : 12.3 MiB (0%)
  570. Title                                    : Swedish-PGS
  571. Language                                 : Swedish
  572. Default                                  : No
  573. Forced                                   : No
  574. Text #17
  575. ID                                       : 34
  576. Format                                   : PGS
  577. Muxing mode                              : zlib
  578. Codec ID                                 : S_HDMV/PGS
  579. Codec ID/Info                            : Picture based subtitle format used on BDs/HD-DVDs
  580. Duration                                 : 57 min 13 s
  581. Bit rate                                 : 22.8 kb/s
  582. Count of elements                        : 766
  583. Stream size                              : 9.32 MiB (0%)
  584. Title                                    : Croatian-PGS
  585. Language                                 : Croatian
  586. Default                                  : No
  587. Forced                                   : No
  588. Text #18
  589. ID                                       : 35
  590. Format                                   : PGS
  591. Muxing mode                              : zlib
  592. Codec ID                                 : S_HDMV/PGS
  593. Codec ID/Info                            : Picture based subtitle format used on BDs/HD-DVDs
  594. Duration                                 : 59 min 35 s
  595. Bit rate                                 : 28.1 kb/s
  596. Count of elements                        : 1118
  597. Stream size                              : 12.0 MiB (0%)
  598. Title                                    : Greek-PGS
  599. Language                                 : Greek
  600. Default                                  : No
  601. Forced                                   : No
  602. Text #19
  603. ID                                       : 36
  604. Format                                   : PGS
  605. Muxing mode                              : zlib
  606. Codec ID                                 : S_HDMV/PGS
  607. Codec ID/Info                            : Picture based subtitle format used on BDs/HD-DVDs
  608. Duration                                 : 58 min 20 s
  609. Bit rate                                 : 15.9 kb/s
  610. Count of elements                        : 862
  611. Stream size                              : 6.65 MiB (0%)
  612. Title                                    : Hebrew-PGS
  613. Language                                 : Hebrew
  614. Default                                  : No
  615. Forced                                   : No
  616. Text #20
  617. ID                                       : 37
  618. Format                                   : PGS
  619. Muxing mode                              : zlib
  620. Codec ID                                 : S_HDMV/PGS
  621. Codec ID/Info                            : Picture based subtitle format used on BDs/HD-DVDs
  622. Duration                                 : 58 min 28 s
  623. Bit rate                                 : 26.5 kb/s
  624. Count of elements                        : 1022
  625. Stream size                              : 11.1 MiB (0%)
  626. Title                                    : Portuguese-PGS
  627. Language                                 : Portuguese
  628. Default                                  : No
  629. Forced                                   : No
  630. Text #21
  631. ID                                       : 38
  632. Format                                   : PGS
  633. Muxing mode                              : zlib
  634. Codec ID                                 : S_HDMV/PGS
  635. Codec ID/Info                            : Picture based subtitle format used on BDs/HD-DVDs
  636. Duration                                 : 57 min 13 s
  637. Bit rate                                 : 24.4 kb/s
  638. Count of elements                        : 1002
  639. Stream size                              : 9.99 MiB (0%)
  640. Title                                    : Romanian-PGS
  641. Language                                 : Romanian
  642. Default                                  : No
  643. Forced                                   : No
  644. Text #22
  645. ID                                       : 39
  646. Format                                   : PGS
  647. Muxing mode                              : zlib
  648. Codec ID                                 : S_HDMV/PGS
  649. Codec ID/Info                            : Picture based subtitle format used on BDs/HD-DVDs
  650. Duration                                 : 57 min 14 s
  651. Bit rate                                 : 22.4 kb/s
  652. Count of elements                        : 766
  653. Stream size                              : 9.17 MiB (0%)
  654. Title                                    : Slovenian-PGS
  655. Language                                 : Slovenian
  656. Default                                  : No
  657. Forced                                   : No
  658. Text #23
  659. ID                                       : 40
  660. Format                                   : PGS
  661. Muxing mode                              : zlib
  662. Codec ID                                 : S_HDMV/PGS
  663. Codec ID/Info                            : Picture based subtitle format used on BDs/HD-DVDs
  664. Duration                                 : 58 min 29 s
  665. Bit rate                                 : 25.8 kb/s
  666. Count of elements                        : 1104
  667. Stream size                              : 10.8 MiB (0%)
  668. Title                                    : Turkish-PGS
  669. Language                                 : Turkish
  670. Default                                  : No
  671. Forced                                   : No
  672. Text #24
  673. ID                                       : 41
  674. Format                                   : PGS
  675. Muxing mode                              : zlib
  676. Codec ID                                 : S_HDMV/PGS
  677. Codec ID/Info                            : Picture based subtitle format used on BDs/HD-DVDs
  678. Duration                                 : 58 min 29 s
  679. Bit rate                                 : 19.8 kb/s
  680. Count of elements                        : 1128
  681. Stream size                              : 8.30 MiB (0%)
  682. Title                                    : Chinese-PGS
  683. Language                                 : Chinese
  684. Default                                  : No
  685. Forced                                   : No
  686. Text #25
  687. ID                                       : 42
  688. Format                                   : PGS
  689. Muxing mode                              : zlib
  690. Codec ID                                 : S_HDMV/PGS
  691. Codec ID/Info                            : Picture based subtitle format used on BDs/HD-DVDs
  692. Duration                                 : 57 min 13 s
  693. Bit rate                                 : 16.2 kb/s
  694. Count of elements                        : 1056
  695. Stream size                              : 6.63 MiB (0%)
  696. Title                                    : Korean-PGS
  697. Language                                 : Korean
  698. Default                                  : No
  699. Forced                                   : No
  700. Text #26
  701. ID                                       : 43
  702. Format                                   : PGS
  703. Muxing mode                              : zlib
  704. Codec ID                                 : S_HDMV/PGS
  705. Codec ID/Info                            : Picture based subtitle format used on BDs/HD-DVDs
  706. Duration                                 : 58 min 29 s
  707. Bit rate                                 : 20.1 kb/s
  708. Count of elements                        : 1106
  709. Stream size                              : 8.42 MiB (0%)
  710. Title                                    : Thai-PGS
  711. Language                                 : Thai
  712. Default                                  : No
  713. Forced                                   : No
  714. Menu
  715. 00:00:00.000                             : en:Chapter 1
  716. 00:00:08.008                             : en:Chapter 2
  717. 00:07:18.438                             : en:Chapter 3
  718. 00:08:58.538                             : en:Chapter 4
  719. 00:18:16.512                             : en:Chapter 5
  720. 00:28:48.560                             : en:Chapter 6
  721. 00:39:37.583                             : en:Chapter 7
  722. 00:50:02.040                             : en:Chapter 8
  723. 01:00:34.631                             : en:Chapter 9
复制代码






                                       
                                       

                                       
                                       
                                       




回复

使用道具 举报

懒得打字嘛,点击右侧快捷回复 【右侧内容,后台自定义】
您需要登录后才可以回帖 登录 | 立即加入

本版积分规则

Archiver|小黑屋| 蓝光电影网 |网站地图

Copyright © 2021 Comsenz Inc. Powered by 蓝光电影网

蓝光电影网

本站内容由用户自主分享和转载自互联网,转载目的在于传递更多信息,并不代表本网赞同其观点和对其真实性负责。

如有侵权、违反国家法律政策行为,请联系我们,我们会第一时间及时清除和处理!

举报反馈邮箱:[email protected]

快速回复 返回顶部 返回列表