找回密码

蓝光电影网

查看: 4|回复: 0

[UHD.HEVC] 阴风阵阵/窒息 Suspiria.2018.2160p.BluRay.REMUX.HEVC.DTS-HD.MA.TrueHD.7.1.Atmos-FGT 78.15GB

[复制链接]
蓝光币
382
发表于 2019-5-22 21:00:46 | 显示全部楼层 |阅读模式




◎译  名 阴风阵阵 / 梗塞(台) / 美版阴风阵阵
◎片  名 Suspiria
◎年  代 2018
◎产  地 意大利 / 美国
◎类  别 惊悚 / 可骇
◎语  言 英语 / 德语 / 法语
◎上映日期 2018-09-01(威尼斯电影节) / 2018-11-02(美国)
◎IMDb评分  6.8/10 from 35478 users
◎IMDb链接  http://www.imdb.com/title/tt1034415
◎豆瓣评分 6.7/10 from 18646 users
◎豆瓣链接 https://movie.douban.com/subject/3095514/
◎片  长 152分钟
◎导  演 卢卡·圭达尼诺 Luca Guadagnino
◎编  剧 达里亚·尼古洛蒂 Daria Nicolodi / 大卫·凯根内奇 David Kajganich / 达里奥·阿基多 Dario Argento
◎主  演 达科塔·约翰逊 Dakota Johnson
      蒂尔达·斯文顿 Tilda Swinton
      科洛·莫瑞兹 Chlo? Grace Moretz
      米娅·高斯 Mia Goth
      杰西卡·哈珀 Jessica Harper
      西尔薇·泰斯图德 Sylvie Testud
      安吉拉·温科勒 Angela Winkler
      玛高莎·贝拉 Malgorzata Bela
      英格丽·卡文 Ingrid Caven

◎标  签 可骇 | 惊悚 | 美国 | 2018 | 意大利 | 翻拍 | 宗教 | 悬疑
◎简  介  
  《我是爱》(I Am Love)和《更大的水花》(A Bigger Splash)的意大利导演卢卡·格达戈尼诺(Luca Guadagnino)行将翻拍1977年达里奥·阿金图(Dario Argento)的意大利典范可骇片《阴风阵阵》(Suspiria),达科塔·约翰森(Dakota Johnson)和蒂尔达·斯温顿(Tilda Swinton)将担任翻拍版的主演。
1977年的《阴风阵阵》报告了美国女孩苏茜来到德国一所历史悠久的芭蕾舞学院进修,成果在黉舍里碰到了一系列奥秘事务、女门生接连遭到血腥残暴的杀戮……经过寻访,苏茜发现这所黉舍本来是一群女巫的大本营,而自己将是下一个受害者!终极,苏茜杀死了黑魔女,逃出了魔窟。
据悉,卢卡·格达戈尼诺翻拍的版本将忠厚于原作,故事仍设定在1977年的柏林,而为该片作曲的将是美国今世著名极简主义音乐家约翰·亚当斯(John Adams),他曾为卢卡·格达戈尼诺的《我是爱》创作过电影音乐。
虽然没有正式公布,可是明显达科塔·约翰森(Dakota Johnson)将在这部电影里饰演女配角苏茜,而蒂尔达·斯温顿(Tilda Swinton)则将饰演芭蕾舞黉舍的校长。
◎获奖情况  
  第75届威尼斯电影节(2018)
  主比赛单元 金狮奖 (提名) 卢卡·瓜达尼诺
  酷儿狮奖(提名) 卢卡·瓜达尼诺
  第24届美国批评家挑选电影奖(2019)
  最好科幻/可骇片(提名)
  最好发型化装(提名)
  第34届美国自力精神奖(2019)
  最好摄影
  罗伯特·奥特曼电影奖
  第17届华盛顿影评人协会奖(2018)
  最好原创配乐(提名) 汤姆·约克
  第39届伦敦影评人协会奖(2019)
  技术成就奖(提名) 汤姆·约克
  第31届芝加哥影评人协会奖(2018)
  最好原创配乐(提名) 汤姆·约克
  第22届美国在线影评人协会奖(2019)
  最好影片(提名)
  最好原创配乐(提名)
  第5届豆瓣电影年度榜单(2018)
  年度电影原声(提名)

  1. Video
  2. ID                                       : 1
  3. Format                                   : HEVC
  4. Format/Info                              : High Efficiency Video Coding
  5. Commercial name                          : HDR10
  6. Format profile                           : Main [email protected]@High
  7. Codec ID                                 : V_MPEGH/ISO/HEVC
  8. Duration                                 : 2 h 32 min
  9. Bit rate                                 : 59.8 Mb/s
  10. Width                                    : 3 840 pixels
  11. Height                                   : 2 160 pixels
  12. Display aspect ratio                     : 16:9
  13. Frame rate mode                          : Constant
  14. Frame rate                               : 23.976 (24000/1001) FPS
  15. Color space                              : YUV
  16. Chroma subsampling                       : 4:2:0 (Type 2)
  17. Bit depth                                : 10 bits
  18. Bits/(Pixel*Frame)                       : 0.301
  19. Stream size                              : 63.6 GiB (81%)
  20. Title                                    : Suspiria.2018.2160p.BluRay.REMUX.HEVC.DTS-HD.MA.TrueHD.7.1.Atmos-FGT
  21. Default                                  : Yes
  22. Forced                                   : No
  23. Color range                              : Limited
  24. Color primaries                          : BT.2020
  25. Transfer characteristics                 : PQ
  26. Matrix coefficients                      : BT.2020 non-constant
  27. Mastering display color primaries        : Display P3
  28. Mastering display luminance              : min: 0.0020 cd/m2, max: 1000 cd/m2
  29. Maximum Content Light Level              : 1000 cd/m2
  30. Maximum Frame-Average Light Level        : 190 cd/m2
  31. Audio #1
  32. ID                                       : 2
  33. Format                                   : MLP FBA 16-ch
  34. Format/Info                              : Meridian Lossless Packing FBA with 16-channel presentation
  35. Commercial name                          : Dolby TrueHD with Dolby Atmos
  36. Codec ID                                 : A_TRUEHD
  37. Duration                                 : 2 h 32 min
  38. Bit rate mode                            : Variable
  39. Bit rate                                 : 4 148 kb/s
  40. Maximum bit rate                         : 6 585 kb/s
  41. Channel(s)                               : 8 channels
  42. Channel layout                           : L R C LFE Ls Rs Lb Rb
  43. Sampling rate                            : 48.0 kHz
  44. Frame rate                               : 1 200.000 FPS (40 SPF)
  45. Compression mode                         : Lossless
  46. Stream size                              : 4.41 GiB (6%)
  47. Title                                    : Suspiria.2018.2160p.BluRay.REMUX.HEVC.DTS-HD.MA.TrueHD.7.1.Atmos-FGT
  48. Language                                 : English
  49. Default                                  : Yes
  50. Forced                                   : No
  51. Number of dynamic objects                : 11
  52. Bed channel count                        : 1 channel
  53. Bed channel configuration                : LFE
  54. Audio #2
  55. ID                                       : 3
  56. Format                                   : DTS XLL
  57. Format/Info                              : Digital Theater Systems
  58. Commercial name                          : DTS-HD Master Audio
  59. Codec ID                                 : A_DTS
  60. Duration                                 : 2 h 32 min
  61. Bit rate mode                            : Variable
  62. Bit rate                                 : 4 160 kb/s
  63. Channel(s)                               : 8 channels
  64. Channel layout                           : C L R LFE Lb Rb Lss Rss
  65. Sampling rate                            : 48.0 kHz
  66. Frame rate                               : 93.750 FPS (512 SPF)
  67. Bit depth                                : 24 bits
  68. Compression mode                         : Lossless
  69. Stream size                              : 4.43 GiB (6%)
  70. Title                                    : Suspiria.2018.2160p.BluRay.REMUX.HEVC.DTS-HD.MA.TrueHD.7.1.Atmos-FGT
  71. Language                                 : English
  72. Default                                  : No
  73. Forced                                   : No
  74. Audio #3
  75. ID                                       : 4
  76. Format                                   : DTS XLL
  77. Format/Info                              : Digital Theater Systems
  78. Commercial name                          : DTS-HD Master Audio
  79. Codec ID                                 : A_DTS
  80. Duration                                 : 2 h 32 min
  81. Bit rate mode                            : Variable
  82. Bit rate                                 : 4 590 kb/s
  83. Channel(s)                               : 8 channels
  84. Channel layout                           : C L R LFE Lb Rb Lss Rss
  85. Sampling rate                            : 48.0 kHz
  86. Frame rate                               : 93.750 FPS (512 SPF)
  87. Bit depth                                : 24 bits
  88. Compression mode                         : Lossless
  89. Stream size                              : 4.88 GiB (6%)
  90. Title                                    : Suspiria.2018.2160p.BluRay.REMUX.HEVC.DTS-HD.MA.TrueHD.7.1.Atmos-FGT
  91. Language                                 : German
  92. Default                                  : No
  93. Forced                                   : No
  94. Audio #4
  95. ID                                       : 5
  96. Format                                   : AC-3
  97. Format/Info                              : Audio Coding 3
  98. Commercial name                          : Dolby Digital
  99. Codec ID                                 : A_AC3
  100. Duration                                 : 2 h 32 min
  101. Bit rate mode                            : Constant
  102. Bit rate                                 : 640 kb/s
  103. Channel(s)                               : 6 channels
  104. Channel layout                           : L R C LFE Ls Rs
  105. Sampling rate                            : 48.0 kHz
  106. Frame rate                               : 31.250 FPS (1536 SPF)
  107. Bit depth                                : 16 bits
  108. Compression mode                         : Lossy
  109. Stream size                              : 697 MiB (1%)
  110. Title                                    : Suspiria.2018.2160p.BluRay.REMUX.HEVC.DTS-HD.MA.TrueHD.7.1.Atmos-FGT
  111. Language                                 : English
  112. Service kind                             : Complete Main
  113. Default                                  : No
  114. Forced                                   : No
  115. Text #1
  116. ID                                       : 6
  117. Format                                   : UTF-8
  118. Codec ID                                 : S_TEXT/UTF8
  119. Codec ID/Info                            : UTF-8 Plain Text
  120. Duration                                 : 2 h 25 min
  121. Bit rate                                 : 31 b/s
  122. Count of elements                        : 1315
  123. Stream size                              : 33.6 KiB (0%)
  124. Title                                    : English-SRT
  125. Language                                 : English
  126. Default                                  : Yes
  127. Forced                                   : No
  128. Text #2
  129. ID                                       : 7
  130. Format                                   : UTF-8
  131. Codec ID                                 : S_TEXT/UTF8
  132. Codec ID/Info                            : UTF-8 Plain Text
  133. Duration                                 : 2 h 25 min
  134. Bit rate                                 : 9 b/s
  135. Count of elements                        : 367
  136. Stream size                              : 10.4 KiB (0%)
  137. Title                                    : English-FORCED-SRT
  138. Language                                 : English
  139. Default                                  : No
  140. Forced                                   : No
  141. Text #3
  142. ID                                       : 8
  143. Format                                   : PGS
  144. Muxing mode                              : zlib
  145. Codec ID                                 : S_HDMV/PGS
  146. Codec ID/Info                            : Picture based subtitle format used on BDs/HD-DVDs
  147. Duration                                 : 2 h 25 min
  148. Bit rate                                 : 20.6 kb/s
  149. Count of elements                        : 2635
  150. Stream size                              : 21.4 MiB (0%)
  151. Title                                    : English-PGS
  152. Language                                 : English
  153. Default                                  : No
  154. Forced                                   : No
  155. Text #4
  156. ID                                       : 9
  157. Format                                   : PGS
  158. Muxing mode                              : zlib
  159. Codec ID                                 : S_HDMV/PGS
  160. Codec ID/Info                            : Picture based subtitle format used on BDs/HD-DVDs
  161. Duration                                 : 2 h 25 min
  162. Bit rate                                 : 6 979 b/s
  163. Count of elements                        : 790
  164. Stream size                              : 7.28 MiB (0%)
  165. Title                                    : English-FORCED-PGS
  166. Language                                 : English
  167. Default                                  : No
  168. Forced                                   : No
  169. Text #5
  170. ID                                       : 10
  171. Format                                   : PGS
  172. Muxing mode                              : zlib
  173. Codec ID                                 : S_HDMV/PGS
  174. Codec ID/Info                            : Picture based subtitle format used on BDs/HD-DVDs
  175. Duration                                 : 2 h 31 min
  176. Bit rate                                 : 15.3 kb/s
  177. Count of elements                        : 1692
  178. Stream size                              : 16.6 MiB (0%)
  179. Title                                    : German-PGS
  180. Language                                 : German
  181. Default                                  : No
  182. Forced                                   : No
  183. Text #6
  184. ID                                       : 11
  185. Format                                   : PGS
  186. Muxing mode                              : zlib
  187. Codec ID                                 : S_HDMV/PGS
  188. Codec ID/Info                            : Picture based subtitle format used on BDs/HD-DVDs
  189. Duration                                 : 2 h 31 min
  190. Bit rate                                 : 898 b/s
  191. Count of elements                        : 96
  192. Stream size                              : 998 KiB (0%)
  193. Title                                    : German-FORCED-PGS
  194. Language                                 : German
  195. Default                                  : No
  196. Forced                                   : No
  197. Menu
  198. 00:00:00.000                             : :Chapter 1
  199. 00:07:15.935                             : :Chapter 2
  200. 00:13:31.143                             : :Chapter 3
  201. 00:21:13.814                             : :Chapter 4
  202. 00:31:04.362                             : :Chapter 5
  203. 00:42:44.436                             : :Chapter 6
  204. 00:53:32.209                             : :Chapter 7
  205. 01:01:18.883                             : :Chapter 8
  206. 01:07:59.325                             : :Chapter 9
  207. 01:19:51.995                             : :Chapter 10
  208. 01:30:06.776                             : :Chapter 11
  209. 01:37:34.974                             : :Chapter 12
  210. 01:44:23.131                             : :Chapter 13
  211. 01:52:24.779                             : :Chapter 14
  212. 02:03:08.297                             : :Chapter 15
  213. 02:09:44.151                             : :Chapter 16
  214. 02:17:38.541                             : :Chapter 17
  215. 02:27:25.378                             : :Chapter 18
复制代码






                                       
                                       

                                       
                                       
                                       




回复

使用道具 举报

懒得打字嘛,点击右侧快捷回复 【右侧内容,后台自定义】
您需要登录后才可以回帖 登录 | 立即加入

本版积分规则

Archiver|小黑屋| 蓝光电影网 |网站地图

Copyright © 2021 Comsenz Inc. Powered by 蓝光电影网

蓝光电影网

本站内容由用户自主分享和转载自互联网,转载目的在于传递更多信息,并不代表本网赞同其观点和对其真实性负责。

如有侵权、违反国家法律政策行为,请联系我们,我们会第一时间及时清除和处理!

举报反馈邮箱:[email protected]

快速回复 返回顶部 返回列表