找回密码

蓝光电影网

查看: 9|回复: 0

[2160p] 灰姑娘/仙履奇缘 Cinderella.2015.2160p.UHD.BluRay.X265.10bit.HDR.TrueHD.7.1.Atmos-TERMiNAL 18.11GB

[复制链接]
蓝光币
382
发表于 2019-6-29 11:42:46 | 显示全部楼层 |阅读模式


◎译  名 灰姑娘 / 仙履奇缘(港 / 台)
◎片  名 Cinderella
◎年  代 2015
◎产  地 美国 / 英国
◎类  别 恋爱 / 奇异 / 冒险
◎语  言 英语
◎上映日期 2015-02-13(柏林电影节) / 2015-03-13(美国/中国大陆)
◎IMDb评分  6.9/10 from 143432 users
◎IMDb链接  http://www.imdb.com/title/tt1661199
◎豆瓣评分 6.8/10 from 152355 users
◎豆瓣链接 https://movie.douban.com/subject/6875263/
◎片  长 106分钟
◎导  演 肯尼思·布拉纳 Kenneth Branagh
◎编  剧 克里斯·韦兹 Chris Weitz
◎主  演 莉莉·詹姆斯 Lily James
      理查德·麦登 Richard Madden
      凯特·布兰切特 Cate Blanchett
      海莉·阿特维尔 Hayley Atwell
      海伦娜·伯翰·卡特 Helena Bonham Carter
      荷丽黛·格兰杰 Holliday Grainger
      索菲 麦希拉 Sophie Mcshera
      斯特兰·斯卡斯加德 Stellan Skarsg?rd
      侬索·阿诺斯 Nonso Anozie
      德里克·雅各比 Derek Jacobi
      本·卓别林 Ben Chaplin
      罗伯·布莱顿 Rob Brydon
      埃洛伊塞·韦伯 Eloise Webb
      劳里·卡尔弗特 Laurie Calvert
      亚历克斯·麦奎因 Alex Macqueen
      约书亚·麦圭尔 Joshua McGuire
      王丽雅 Leila Wong

◎标  签 童话 | 迪士尼 | 美国 | 恋爱 | 奇异 | 2015 | 浪漫 | 剧情
◎简  介  
  母亲归天后,瑞拉(莉莉·詹姆斯 Lily James 饰)的父亲迎娶了美丽的特曼妮夫人(凯特·布兰切特 Cate Blanchett 饰),特曼妮夫人还带来了她的两个女儿安乐西亚(荷丽黛·格兰杰 Holliday Grainger 饰)和崔西里亚(索菲·麦希拉 Sophie McShera 饰)。瑞拉本着善待他人的善良之心和继母与两个姐姐战争共处,但是,这一切却在父亲归天后发生了天翻地覆的变化。
落空了父亲的庇护,瑞拉完全沦为了特曼妮夫人的仆从和家中的女佣,可是,即使饱受亲人们的榨取与欺侮,瑞拉仍然决议留下来,保护这个家庭。一次偶然中,瑞拉相逢了名为基特(理查德·麦登 Richard Madden 饰)的男人,但是,她并不晓得眼前这个布满了魅力的年轻人贵为王子,还以为他只是区区随从。王子在王宫里举行了大型的宴会,约请全国高低的少女们前往加入,瑞拉也想去,但特曼妮夫人明显并不喜好她的这个主张。
◎获奖情况  
  第88届奥斯卡金像奖(2016)
  最好打扮设想(提名) 桑迪·鲍威尔
  第69届英国电影学院奖(2016)
  电影奖 最好打扮设想(提名) 桑迪·鲍威尔
  第18届美国打扮设想工会奖(2016)
  科幻/奇异题材电影最好打扮设想(提名)
  第21届美国批评家挑选电影奖(2016)
  最好打扮设想(提名)
  第19届好莱坞电影奖(2015)
  年度打扮设想 桑迪·鲍威尔
  第17届美国青少年挑选奖(2015)
  最好科幻/奇异电影(提名)
  最好科幻/奇异电影女演员(提名) 莉莉·詹姆斯
  第2届豆瓣电影年度榜单(2015)
  3月最受关注电影(提名)
  第6届豆瓣电影鑫像奖(2016)
  豆渣单元 最渣女演员(外语)(提名) 莉莉·詹姆斯

  1. Video
  2. ID                                       : 1
  3. Format                                   : HEVC
  4. Format/Info                              : High Efficiency Video Coding
  5. Commercial name                          : HDR10
  6. Format profile                           : Main [email protected]@High
  7. Codec ID                                 : V_MPEGH/ISO/HEVC
  8. Duration                                 : 1 h 45 min
  9. Bit rate                                 : 19.2 Mb/s
  10. Width                                    : 3 840 pixels
  11. Height                                   : 1 610 pixels
  12. Display aspect ratio                     : 2.40:1
  13. Frame rate mode                          : Constant
  14. Frame rate                               : 23.976 (24000/1001) FPS
  15. Color space                              : YUV
  16. Chroma subsampling                       : 4:2:0 (Type 2)
  17. Bit depth                                : 10 bits
  18. Bits/(Pixel*Frame)                       : 0.129
  19. Stream size                              : 14.1 GiB (78%)
  20. Writing library                          : x265 3.1b36c03e4e771:[Windows][GCC 6.3.0][64 bit] 10bit
  21. Encoding settings                        : cpuid=1176575 / frame-threads=5 / numa-pools=36 / wpp / no-pmode / no-pme / no-psnr / no-ssim / log-level=2 / input-csp=1 / input-res=3840x1610 / interlace=0 / total-frames=151578 / level-idc=51 / high-tier=1 / uhd-bd=0 / ref=4 / no-allow-non-conformance / repeat-headers / annexb / aud / hrd / info / hash=0 / no-temporal-layers / no-open-gop / min-keyint=1 / keyint=24 / gop-lookahead=0 / bframes=4 / b-adapt=2 / b-pyramid / bframe-bias=0 / rc-lookahead=25 / lookahead-slices=4 / scenecut=40 / radl=0 / no-splice / no-intra-refresh / ctu=64 / min-cu-size=8 / rect / no-amp / max-tu-size=32 / tu-inter-depth=1 / tu-intra-depth=1 / limit-tu=0 / rdoq-level=2 / dynamic-rd=0.00 / no-ssim-rd / signhide / no-tskip / nr-intra=0 / nr-inter=0 / no-constrained-intra / no-strong-intra-smoothing / max-merge=3 / limit-refs=3 / limit-modes / me=3 / subme=3 / merange=57 / temporal-mvp / weightp / no-weightb / no-analyze-src-pics / deblock=-3:-3 / no-sao / no-sao-non-deblock / rd=4 / no-early-skip / rskip / no-fast-intra / no-tskip-fast / no-cu-lossless / no-b-intra / no-splitrd-skip / rdpenalty=0 / psy-rd=2.00 / psy-rdoq=1.00 / no-rd-refine / no-lossless / cbqpoffs=0 / crqpoffs=0 / rc=crf / crf=17.0 / qcomp=0.60 / qpstep=4 / stats-write=0 / stats-read=0 / vbv-maxrate=160000 / vbv-bufsize=160000 / vbv-init=0.9 / crf-max=0.0 / crf-min=0.0 / ipratio=1.40 / pbratio=1.30 / aq-mode=2 / aq-strength=1.00 / cutree / zone-count=0 / no-strict-cbr / qg-size=32 / no-rc-grain / qpmax=69 / qpmin=0 / no-const-vbv / sar=1 / overscan=0 / videoformat=5 / range=0 / colorprim=9 / transfer=16 / colormatrix=9 / chromaloc=1 / chromaloc-top=2 / chromaloc-bottom=2 / display-window=0 / master-display=G(13250,34500)B(7500,3000)R(34000,16000)WP(15635,16450)L(10000000,20)cll=0,0 / min-luma=0 / max-luma=1023 / log2-max-poc-lsb=8 / vui-timing-info / vui-hrd-info / slices=1 / no-opt-qp-pps / no-opt-ref-list-length-pps / no-multi-pass-opt-rps / scenecut-bias=0.05 / no-opt-cu-delta-qp / no-aq-motion / hdr / hdr-opt / no-dhdr10-opt / no-idr-recovery-sei / analysis-reuse-level=5 / scale-factor=0 / refine-intra=0 / refine-inter=0 / refine-mv=0 / refine-ctu-distortion=0 / no-limit-sao / ctu-info=0 / no-lowpass-dct / refine-analysis-type=0 / copy-pic=1 / max-ausize-factor=1.0 / no-dynamic-refine / no-single-sei / no-hevc-aq / no-svt / no-field / qp-adaptation-range=1.00
  22. Default                                  : Yes
  23. Forced                                   : No
  24. Color range                              : Limited
  25. Color primaries                          : BT.2020
  26. Transfer characteristics                 : PQ
  27. Matrix coefficients                      : BT.2020 non-constant
  28. Mastering display color primaries        : Display P3
  29. Mastering display luminance              : min: 0.0020 cd/m2, max: 1000 cd/m2
  30. Audio #1
  31. ID                                       : 2
  32. Format                                   : MLP FBA 16-ch
  33. Format/Info                              : Meridian Lossless Packing FBA with 16-channel presentation
  34. Commercial name                          : Dolby TrueHD with Dolby Atmos
  35. Codec ID                                 : A_TRUEHD
  36. Duration                                 : 1 h 45 min
  37. Bit rate mode                            : Variable
  38. Bit rate                                 : 4 681 kb/s
  39. Maximum bit rate                         : 8 343 kb/s
  40. Channel(s)                               : 8 channels
  41. Channel layout                           : L R C LFE Ls Rs Lb Rb
  42. Sampling rate                            : 48.0 kHz
  43. Frame rate                               : 1 200.000 FPS (40 SPF)
  44. Compression mode                         : Lossless
  45. Stream size                              : 3.45 GiB (19%)
  46. Language                                 : English
  47. Default                                  : Yes
  48. Forced                                   : No
  49. Number of dynamic objects                : 13
  50. Bed channel count                        : 1 channel
  51. Bed channel configuration                : LFE
  52. Audio #2
  53. ID                                       : 3
  54. Format                                   : AC-3
  55. Format/Info                              : Audio Coding 3
  56. Commercial name                          : Dolby Digital
  57. Codec ID                                 : A_AC3
  58. Duration                                 : 1 h 45 min
  59. Bit rate mode                            : Constant
  60. Bit rate                                 : 640 kb/s
  61. Channel(s)                               : 6 channels
  62. Channel layout                           : L R C LFE Ls Rs
  63. Sampling rate                            : 48.0 kHz
  64. Frame rate                               : 31.250 FPS (1536 SPF)
  65. Bit depth                                : 16 bits
  66. Compression mode                         : Lossy
  67. Stream size                              : 482 MiB (3%)
  68. Language                                 : English
  69. Service kind                             : Complete Main
  70. Default                                  : No
  71. Forced                                   : No
  72. Text #1
  73. ID                                       : 4
  74. Format                                   : PGS
  75. Muxing mode                              : zlib
  76. Codec ID                                 : S_HDMV/PGS
  77. Codec ID/Info                            : Picture based subtitle format used on BDs/HD-DVDs
  78. Duration                                 : 1 h 44 min
  79. Bit rate                                 : 41.4 kb/s
  80. Count of elements                        : 3474
  81. Stream size                              : 31.0 MiB (0%)
  82. Title                                    : English SDH
  83. Language                                 : English
  84. Default                                  : No
  85. Forced                                   : No
  86. Text #2
  87. ID                                       : 5
  88. Format                                   : PGS
  89. Muxing mode                              : zlib
  90. Codec ID                                 : S_HDMV/PGS
  91. Codec ID/Info                            : Picture based subtitle format used on BDs/HD-DVDs
  92. Duration                                 : 1 h 44 min
  93. Bit rate                                 : 34.2 kb/s
  94. Count of elements                        : 2874
  95. Stream size                              : 25.6 MiB (0%)
  96. Title                                    : French 1
  97. Language                                 : French
  98. Default                                  : No
  99. Forced                                   : No
  100. Text #3
  101. ID                                       : 6
  102. Format                                   : PGS
  103. Muxing mode                              : zlib
  104. Codec ID                                 : S_HDMV/PGS
  105. Codec ID/Info                            : Picture based subtitle format used on BDs/HD-DVDs
  106. Duration                                 : 1 h 44 min
  107. Bit rate                                 : 31.9 kb/s
  108. Count of elements                        : 2850
  109. Stream size                              : 23.8 MiB (0%)
  110. Title                                    : Spanish 1
  111. Language                                 : Spanish
  112. Default                                  : No
  113. Forced                                   : No
  114. Text #4
  115. ID                                       : 7
  116. Format                                   : PGS
  117. Muxing mode                              : zlib
  118. Codec ID                                 : S_HDMV/PGS
  119. Codec ID/Info                            : Picture based subtitle format used on BDs/HD-DVDs
  120. Duration                                 : 1 h 44 min
  121. Bit rate                                 : 24.0 kb/s
  122. Count of elements                        : 2396
  123. Stream size                              : 17.9 MiB (0%)
  124. Title                                    : Japanese
  125. Language                                 : Japanese
  126. Default                                  : No
  127. Forced                                   : No
  128. Text #5
  129. ID                                       : 8
  130. Format                                   : PGS
  131. Muxing mode                              : zlib
  132. Codec ID                                 : S_HDMV/PGS
  133. Codec ID/Info                            : Picture based subtitle format used on BDs/HD-DVDs
  134. Duration                                 : 1 min 19 s
  135. Bit rate                                 : 5 577 b/s
  136. Count of elements                        : 12
  137. Stream size                              : 54.1 KiB (0%)
  138. Title                                    : French 2
  139. Language                                 : French
  140. Default                                  : No
  141. Forced                                   : No
  142. Text #6
  143. ID                                       : 9
  144. Format                                   : PGS
  145. Muxing mode                              : zlib
  146. Codec ID                                 : S_HDMV/PGS
  147. Codec ID/Info                            : Picture based subtitle format used on BDs/HD-DVDs
  148. Duration                                 : 1 min 0 s
  149. Bit rate                                 : 1 902 b/s
  150. Count of elements                        : 4
  151. Stream size                              : 14.0 KiB (0%)
  152. Title                                    : Spanish 2
  153. Language                                 : Spanish
  154. Default                                  : No
  155. Forced                                   : No
复制代码






                                       
                                       

                                       
                                       
                                       




回复

使用道具 举报

懒得打字嘛,点击右侧快捷回复 【右侧内容,后台自定义】
您需要登录后才可以回帖 登录 | 立即加入

本版积分规则

Archiver|小黑屋| 蓝光电影网 |网站地图

Copyright © 2021 Comsenz Inc. Powered by 蓝光电影网

蓝光电影网

本站内容由用户自主分享和转载自互联网,转载目的在于传递更多信息,并不代表本网赞同其观点和对其真实性负责。

如有侵权、违反国家法律政策行为,请联系我们,我们会第一时间及时清除和处理!

举报反馈邮箱:[email protected]

快速回复 返回顶部 返回列表