找回密码

蓝光电影网

查看: 4|回复: 0

[2160p] 杀死希特勒与大脚怪的人/先杀希特勒后杀大脚怪的男人 The.Man.Who.Killed.Hitler.and.Then.The.Bigfoot.2018.2160p.BluRay.x265.10bit.SDR.DTS-HD.MA.5.1-SWTYBLZ 31.06GB

[复制链接]
蓝光币
382
发表于 2019-6-26 19:39:27 | 显示全部楼层 |阅读模式


◎译  名 杀死希特勒与大脚怪的人 / 先杀希特勒后杀大脚怪的汉子
◎片  名 The Man Who Killed Hitler and Then the Bigfoot
◎年  代 2018
◎产  地 美国
◎类  别 剧情 / 冒险
◎语  言 英语
◎上映日期 2018-07-20(加拿大奇异电影节) / 2019-02-08(美国)
◎IMDb评分  5.6/10 from 4245 users
◎IMDb链接  http://www.imdb.com/title/tt7042862
◎豆瓣评分 6.1/10 from 1026 users
◎豆瓣链接 https://movie.douban.com/subject/27078570/
◎片  长 98分钟
◎导  演 罗伯特·D·卡兹科夫斯基 Robert D. Krzykowski
◎编  剧 罗伯特·D·卡兹科夫斯基 Robert D. Krzykowski
◎主  演 山姆·艾里奥特 Sam Elliott
      艾丹·特纳 Aidan Turner
      朗·里维斯顿 Ron Livingston
      凯特琳·菲茨杰拉德 Caitlin Fitzgerald
      肖恩·布里吉格斯 Sean Bridgers
      拉里·米勒 Larry Miller
      阿纳斯塔西亚·齐卡那瓦 Anastasia Tsikhanava
      埃拉·科尔特兰 Ellar Coltrane
      马克·斯达格 Mark Steger
      里兹万·曼吉 Rizwan Manji
      阿尔顿·菲茨杰拉德·怀特 Alton Fitzgerald White
      罗科·焦弗雷 Rocco Gioffre
      特里·霍兰德 Terry Holland
      艾伦·弗朗西斯 Alan Francis
      马克·隆德 Mark Lund
      丹尼尔·B·马丁 Daniel B. Martin
      罗丝玛丽·霍华德 Rosemary Howard

◎标  签 美国 | 剧情 | 冒险 | 2019 | 科幻 | 魔幻 | 希特勒 | 恋爱
◎简  介  
  山姆·艾里奥特(《一个明星的诞生》《谋杀绿脚趾》)饰演的Calvin看似只是个普通的带狗老人,等艾丹·特纳(《霍比特人》《无人生还》)饰演的年轻时的他退场,才知本来昔时竟是他杀死了阿道夫·希特勒。几十年后的现在,Calvin大隐约于市,却被美国政府再找上门,希望他再次拯救天下:去加拿大跋山涉水,杀死传闻中的“雪人”大脚怪,它身上带着致命瘟疫。
  1. Video
  2. ID                                       : 1
  3. Format                                   : HEVC
  4. Format/Info                              : High Efficiency Video Coding
  5. Format profile                           : Main [email protected]@High
  6. Codec ID                                 : V_MPEGH/ISO/HEVC
  7. Duration                                 : 1 h 39 min
  8. Bit rate                                 : 41.7 Mb/s
  9. Width                                    : 3 840 pixels
  10. Height                                   : 1 600 pixels
  11. Display aspect ratio                     : 2.40:1
  12. Frame rate mode                          : Constant
  13. Frame rate                               : 23.976 (24000/1001) FPS
  14. Color space                              : YUV
  15. Chroma subsampling                       : 4:2:0
  16. Bit depth                                : 10 bits
  17. Bits/(Pixel*Frame)                       : 0.283
  18. Stream size                              : 29.1 GiB (94%)
  19. Title                                    : The.Man.Who.Killed.Hitler.and.Then.The.Bigfoot.2018.2160p.BluRay.x265.10bit.SDR.DTS-HD.MA.5.1-SWTYBLZ
  20. Writing library                          : x265 3.0ed72af837053:[Windows][GCC 8.2.0][64 bit] 10bit
  21. Encoding settings                        : cpuid=1111039 / frame-threads=16 / numa-pools=24,24,24,24 / wpp / no-pmode / no-pme / no-psnr / no-ssim / log-level=2 / input-csp=1 / input-res=3840x1600 / interlace=0 / total-frames=143688 / level-idc=51 / high-tier=1 / uhd-bd=0 / ref=3 / no-allow-non-conformance / repeat-headers / annexb / aud / hrd / info / hash=0 / no-temporal-layers / no-open-gop / min-keyint=1 / keyint=24 / gop-lookahead=0 / bframes=4 / b-adapt=2 / b-pyramid / bframe-bias=0 / rc-lookahead=25 / lookahead-slices=4 / scenecut=40 / radl=0 / no-splice / no-intra-refresh / ctu=64 / min-cu-size=8 / no-rect / no-amp / max-tu-size=32 / tu-inter-depth=1 / tu-intra-depth=1 / limit-tu=0 / rdoq-level=0 / dynamic-rd=0.00 / no-ssim-rd / signhide / no-tskip / nr-intra=0 / nr-inter=0 / no-constrained-intra / strong-intra-smoothing / max-merge=2 / limit-refs=3 / no-limit-modes / me=1 / subme=2 / merange=57 / temporal-mvp / weightp / no-weightb / no-analyze-src-pics / deblock=0:0 / no-sao / no-sao-non-deblock / rd=3 / no-early-skip / rskip / no-fast-intra / no-tskip-fast / no-cu-lossless / no-b-intra / no-splitrd-skip / rdpenalty=0 / psy-rd=2.00 / psy-rdoq=0.00 / no-rd-refine / no-lossless / cbqpoffs=0 / crqpoffs=0 / rc=crf / crf=18.0 / qcomp=0.60 / qpstep=4 / stats-write=0 / stats-read=0 / vbv-maxrate=160000 / vbv-bufsize=160000 / vbv-init=0.9 / crf-max=0.0 / crf-min=0.0 / ipratio=1.40 / pbratio=1.30 / aq-mode=1 / aq-strength=1.00 / cutree / zone-count=0 / no-strict-cbr / qg-size=32 / no-rc-grain / qpmax=69 / qpmin=0 / no-const-vbv / sar=1 / overscan=0 / videoformat=5 / range=0 / colorprim=2 / transfer=2 / colormatrix=2 / chromaloc=0 / display-window=0 / max-cll=0,0 / min-luma=0 / max-luma=1023 / log2-max-poc-lsb=8 / vui-timing-info / vui-hrd-info / slices=1 / opt-qp-pps / opt-ref-list-length-pps / no-multi-pass-opt-rps / scenecut-bias=0.05 / no-opt-cu-delta-qp / no-aq-motion / no-hdr / no-hdr-opt / no-dhdr10-opt / no-idr-recovery-sei / analysis-reuse-level=5 / scale-factor=0 / refine-intra=0 / refine-inter=0 / refine-mv=0 / refine-ctu-distortion=0 / no-limit-sao / ctu-info=0 / no-lowpass-dct / refine-analysis-type=0 / copy-pic=1 / max-ausize-factor=1.0 / no-dynamic-refine / no-single-sei / no-hevc-aq / qp-adaptation-range=1.00
  22. Default                                  : Yes
  23. Forced                                   : No
  24. Audio #1
  25. ID                                       : 2
  26. Format                                   : DTS XLL
  27. Format/Info                              : Digital Theater Systems
  28. Commercial name                          : DTS-HD Master Audio
  29. Codec ID                                 : A_DTS
  30. Duration                                 : 1 h 37 min
  31. Bit rate mode                            : Variable
  32. Bit rate                                 : 1 826 kb/s
  33. Channel(s)                               : 6 channels
  34. Channel layout                           : C L R Ls Rs LFE
  35. Sampling rate                            : 48.0 kHz
  36. Frame rate                               : 93.750 FPS (512 SPF)
  37. Bit depth                                : 16 bits
  38. Compression mode                         : Lossless
  39. Stream size                              : 1.25 GiB (4%)
  40. Title                                    : The.Man.Who.Killed.Hitler.and.Then.The.Bigfoot.2018.2160p.BluRay.x265.10bit.SDR.DTS-HD.MA.5.1-SWTYBLZ
  41. Language                                 : English
  42. Default                                  : Yes
  43. Forced                                   : No
  44. Audio #2
  45. ID                                       : 3
  46. Format                                   : AC-3
  47. Format/Info                              : Audio Coding 3
  48. Commercial name                          : Dolby Digital
  49. Codec ID                                 : A_AC3
  50. Duration                                 : 1 h 37 min
  51. Bit rate mode                            : Constant
  52. Bit rate                                 : 640 kb/s
  53. Channel(s)                               : 6 channels
  54. Channel layout                           : L R C LFE Ls Rs
  55. Sampling rate                            : 48.0 kHz
  56. Frame rate                               : 31.250 FPS (1536 SPF)
  57. Bit depth                                : 16 bits
  58. Compression mode                         : Lossy
  59. Stream size                              : 447 MiB (1%)
  60. Title                                    : The.Man.Who.Killed.Hitler.and.Then.The.Bigfoot.2018.2160p.BluRay.x265.10bit.SDR.DTS-HD.MA.5.1-SWTYBLZ
  61. Language                                 : English
  62. Service kind                             : Complete Main
  63. Default                                  : No
  64. Forced                                   : No
  65. Text #1
  66. ID                                       : 4
  67. Format                                   : UTF-8
  68. Codec ID                                 : S_TEXT/UTF8
  69. Codec ID/Info                            : UTF-8 Plain Text
  70. Duration                                 : 1 h 29 min
  71. Bit rate                                 : 34 b/s
  72. Count of elements                        : 823
  73. Stream size                              : 22.4 KiB (0%)
  74. Title                                    : English-SRT
  75. Language                                 : English
  76. Default                                  : Yes
  77. Forced                                   : No
  78. Text #2
  79. ID                                       : 5
  80. Format                                   : UTF-8
  81. Codec ID                                 : S_TEXT/UTF8
  82. Codec ID/Info                            : UTF-8 Plain Text
  83. Duration                                 : 1 h 30 min
  84. Bit rate                                 : 43 b/s
  85. Count of elements                        : 1116
  86. Stream size                              : 29.0 KiB (0%)
  87. Title                                    : English-SDH-SRT
  88. Language                                 : English
  89. Default                                  : No
  90. Forced                                   : No
  91. Text #3
  92. ID                                       : 6
  93. Format                                   : PGS
  94. Muxing mode                              : zlib
  95. Codec ID                                 : S_HDMV/PGS
  96. Codec ID/Info                            : Picture based subtitle format used on BDs/HD-DVDs
  97. Duration                                 : 1 h 29 min
  98. Bit rate                                 : 27.9 kb/s
  99. Count of elements                        : 1668
  100. Stream size                              : 17.8 MiB (0%)
  101. Title                                    : German-PGS
  102. Language                                 : German
  103. Default                                  : No
  104. Forced                                   : No
  105. Text #4
  106. ID                                       : 7
  107. Format                                   : PGS
  108. Muxing mode                              : zlib
  109. Codec ID                                 : S_HDMV/PGS
  110. Codec ID/Info                            : Picture based subtitle format used on BDs/HD-DVDs
  111. Duration                                 : 1 h 34 min
  112. Bit rate                                 : 28.3 kb/s
  113. Count of elements                        : 1865
  114. Stream size                              : 19.1 MiB (0%)
  115. Title                                    : German-PGS
  116. Language                                 : German
  117. Default                                  : No
  118. Forced                                   : No
  119. Menu
  120. 00:00:00.000                             : en:Chapter 01
  121. 00:10:45.603                             : en:Chapter 02
  122. 00:19:39.970                             : en:Chapter 03
  123. 00:28:34.963                             : en:Chapter 04
  124. 00:40:27.925                             : en:Chapter 05
  125. 00:53:50.977                             : en:Chapter 06
  126. 01:01:02.116                             : en:Chapter 07
  127. 01:07:24.248                             : en:Chapter 08
  128. 01:16:13.360                             : en:Chapter 09
  129. 01:22:13.053                             : en:Chapter 10
复制代码









                                       
                                       

                                       
                                       
                                       




杀死希特勒与大脚怪的人/先杀希特勒后杀大脚怪的汉子 The.Man.Who.Killed.Hitler.and.Then.The.Bigfoot.2018.2160p.BluRay.x265.10bit.SDR.DTS-HD.MA.5.1-SWTYBLZ 31.06GB

The.Man.Who.Killed.Hitler.and.Then.The.Bigfoot.2018.2160p.BluRay.x265.10bit.SDR..torrent

78.34 KB, 下载次数: 0, 下载积分: 蓝光币 -2

回复

使用道具 举报

懒得打字嘛,点击右侧快捷回复 【右侧内容,后台自定义】
您需要登录后才可以回帖 登录 | 立即加入

本版积分规则

Archiver|小黑屋| 蓝光电影网 |网站地图

Copyright © 2021 Comsenz Inc. Powered by 蓝光电影网

蓝光电影网

本站内容由用户自主分享和转载自互联网,转载目的在于传递更多信息,并不代表本网赞同其观点和对其真实性负责。

如有侵权、违反国家法律政策行为,请联系我们,我们会第一时间及时清除和处理!

举报反馈邮箱:[email protected]

快速回复 返回顶部 返回列表